<?xml version="1.0" standalone="no"?>
<!DOCTYPE svg PUBLIC "-//W3C//DTD SVG 1.1//EN" "http://www.w3.org/Graphics/SVG/1.1/DTD/svg11.dtd" >
<svg xmlns="http://www.w3.org/2000/svg" xmlns:xlink="http://www.w3.org/1999/xlink" version="1.1">
<metadata>
Created by FontForge 20190801 at Wed Aug 13 09:28:16 2008
 By root
Copyright (c) Gophmann A.L., 2008. All rights reserved.
</metadata>
<defs>
<font id="Variete-Normal" horiz-adv-x="319" >
  <font-face 
    font-family="Variete"
    font-weight="400"
    font-stretch="normal"
    units-per-em="1000"
    panose-1="2 0 4 0 0 0 0 0 0 0"
    ascent="800"
    descent="-200"
    x-height="491"
    cap-height="666"
    bbox="-50 -170 722 853"
    underline-thickness="20"
    underline-position="-143"
    unicode-range="U+0020-2122"
  />
<missing-glyph horiz-adv-x="500" 
d="M63 0v800h375v-800h-375zM125 63h250v675h-250v-675z" />
    <glyph glyph-name=".notdef" horiz-adv-x="500" 
d="M63 0v800h375v-800h-375zM125 63h250v675h-250v-675z" />
    <glyph glyph-name="space" unicode=" " horiz-adv-x="166" 
 />
    <glyph glyph-name="exclam" unicode="!" horiz-adv-x="205" 
d="M147 596q0 -30 -23.5 -217.5t-26.5 -191.5h-30l-47 406q0 6 -2.5 20t-2.5 20q0 25 29 34h76q32 0 32 -29q0 -7 -2.5 -22t-2.5 -20zM143 70q0 -27 -15 -50q-18 -26 -47 -26q-30 0 -47 28q-13 23 -13 46q0 28 14 51q17 27 46 27q30 0 48 -28q14 -22 14 -48z" />
    <glyph glyph-name="quotedbl" unicode="&#x22;" horiz-adv-x="276" 
d="M200 409h-19l-27 213q-8 44 20 44h17.5h20.5q28 0 21 -39v-4q0 -19 -33 -214zM80 409h-19l-27 213q-8 44 20 44h17.5h20.5q28 0 21 -39v-4q0 -19 -33 -214z" />
    <glyph glyph-name="numbersign" unicode="#" horiz-adv-x="473" 
d="M341 402l-15 -122h84v-69h-93l-28 -210h-69l28 210h-84l-28 -210h-70l28 210h-83v69h92l15 122h-84v69h93l26 196h70l-26 -196h83l27 196h69l-25 -196h82v-69h-92zM188 402l-15 -122h84l15 122h-84z" />
    <glyph glyph-name="dollar" unicode="$" horiz-adv-x="354" 
d="M176 2q-5 -29 0 -65h-37v63q-68 0 -96 23q-32 25 -32 89q0 113 4 155q3 21 24 51t40 30q3 0 6 -1l25 -9v-168q1 7 -10 13.5t-22 6.5q-21 0 -21 -93q0 -12 11 -26q13 -17 30 -17h40v281q0 3 -33 41q-40 46 -62 86q-34 61 -34 121q0 65 34 78q13 6 99 6l-1 63l33 1
q3 -18 0 -64h29q-8 1 25 1q68 0 68 -126v-32q-2 -16 -24.5 -38.5t-37.5 -22.5q-19 0 -19 19q0 4 5.5 15.5t5.5 15.5q0 25 -32 54q-21 32 -23 29l3 -107q72 -65 93 -96q33 -49 33 -124q0 -67 -3 -189q-1 -33 -35 -50q-27 -15 -62 -15q-12 0 -24 1zM139 600q-33 16 -48 16
q-21 0 -21 -21q0 -15 27 -45q22 -26 40 -38q2 14 2 88zM223 90q0 40 -13.5 93.5t-33.5 84.5v-213l24 -1q23 3 23 36z" />
    <glyph glyph-name="percent" unicode="%" horiz-adv-x="654" 
d="M608 106q0 -24 -15 -54t-40 -49l-108 -2q-28 0 -49 41q-18 35 -18 65v263q0 58 57 64l118 1q24 0 40 -18.5t16 -42.5zM548 202q0 42 -14 92q-21 78 -62 78q-31 0 -31 -82q0 -45 9 -89q17 -85 59 -85q39 0 39 86zM226 336q0 -24 -15 -54t-40 -49l-108 -2q-28 0 -49 41
q-18 35 -18 65v263q0 60 49 65h126q24 0 39 -18t15 -42zM166 432q0 42 -14 92q-21 78 -62 78q-31 0 -31 -82q0 -45 9 -89q17 -85 59 -85q39 0 39 86zM464 676l-316 -704l-35 18l315 704z" />
    <glyph glyph-name="ampersand" unicode="&#x26;" horiz-adv-x="427" 
d="M382 135q0 -73 -9 -111q-2 -9 -16 -9q-11 0 -26 12t-19 12t-10 -6l-7 -7q-21 -13 -37 -16t-87 -3q-60 0 -96 3q-19 2 -43 21.5t-24 39.5v216q0 40 18 74q11 23 33 45q17 18 17 21q0 -4 -31 55t-31 98q0 57 33 74q20 11 75 11l143 -3q63 -9 63 -71q0 -39 -62 -111
q-85 -99 -88 -105q14 -35 23 -35q2 0 16.5 12t26.5 12q30 0 55 -62q16 -38 19 -63.5t8 -75.5q-3 -2 3 -2q3 0 14 2.5t15 2.5q24 0 24 -31zM252 597q0 14 -16.5 22t-32.5 8q-34 0 -58 -38q-20 -33 -20 -65t18 -41q20 18 52 46q19 17 38 35t19 33zM233 108q0 13 -10 44
q-13 42 -29 42q-23 0 -40 -60q-15 -51 -12 -65q8 -11 34 -11q57 0 57 50zM156 271q0 5 -7 19t-11 16q-25 -23 -41 -86q-14 -54 -14 -102q0 -41 11 -52q10 0 19 -2q-3 24 -3 45q0 57 23 106t23 56z" />
    <glyph glyph-name="quotesingle" unicode="'" horiz-adv-x="142" 
d="M80 409h-19l-27 213q-8 44 20 44h17.5h20.5q28 0 21 -39v-4q0 -19 -33 -214z" />
    <glyph glyph-name="parenleft" unicode="(" horiz-adv-x="226" 
d="M194 719q0 4 -24 -90q-14 -54 -24 -159q-9 -98 -9 -170q0 -211 51 -400q-7 -6 -20 -17q-6 0 -9 3q-128 175 -128 425q0 120 29 216q42 139 110 220q4 -1 14 -11.5t10 -16.5z" />
    <glyph glyph-name="parenright" unicode=")" horiz-adv-x="234" 
d="M18 719q0 4 24 -90q13 -54 24 -159q9 -98 9 -170q0 -211 -51 -400q7 -6 19 -17q7 0 9 3q129 175 129 425q0 120 -29 216q-42 139 -110 220q-4 -1 -14 -11.5t-10 -16.5z" />
    <glyph glyph-name="asterisk" unicode="*" horiz-adv-x="413" 
d="M201 480q-34 -20 -47 -38t-25 -35q-15 -17 -36 -17q-16 0 -27 11t-11 27q0 40 71 46q28 2 65 23q-18 11 -27 15q-15 6 -30 8q-43 5 -51 8q-28 10 -28 39q0 15 11 26t27 11q26 0 55 -44q17 -24 53 -45v15q0 26 -14.5 57t-14.5 44q0 17 11 29.5t28 12.5t28.5 -13t11.5 -30
q0 -12 -17 -46q-12 -26 -12 -69q17 10 48 38q12 17 25.5 34t34.5 17q16 0 27 -11t11 -26q0 -27 -24 -37q-14 -6 -45.5 -8.5t-66.5 -24.5q34 -20 57 -23q42 -5 51 -8q28 -10 28 -39q0 -35 -36 -35q-26 0 -57 43q-17 24 -53 45v-16q0 -25 14 -56t14 -44q0 -18 -11 -30.5
t-28 -12.5t-28 13t-11 30q0 12 17 46q12 27 12 70z" />
    <glyph glyph-name="plus" unicode="+" horiz-adv-x="490" 
d="M294 302v-164h-82v164h-163v81h163v164h82v-164h163v-81h-163z" />
    <glyph glyph-name="comma" unicode="," horiz-adv-x="251" 
d="M46 -130l-9 28q63 32 66 106q-28 3 -46.5 23t-20.5 49q-1 32 20.5 55t52.5 25q40 2 64 -29q21 -27 23 -68q4 -67 -41 -120q-41 -48 -109 -69z" />
    <glyph glyph-name="hyphen" unicode="-" horiz-adv-x="236" 
d="M174 391q-32 -13 -91 -38q-22 -12 -67 -39v99h158q0 1 0 -22zM175 260h-156v28q20 17 75 43q48 23 80 34q3 -4 1 -105z" />
    <glyph glyph-name="period" unicode="." horiz-adv-x="191" 
d="M135 74q0 -27 -14 -50q-17 -27 -46 -27q-27 0 -42 24q-12 21 -12 50q0 74 55 77q28 2 45 -26q14 -22 14 -48z" />
    <glyph glyph-name="slash" unicode="/" horiz-adv-x="389" 
d="M364 676l-316 -704l-35 18l315 704z" />
    <glyph glyph-name="zero" unicode="0" 
d="M284 527v-375l-12 -94q-13 -52 -54 -57h-66q-45 0 -50 3q-35 21 -53 78q-14 44 -14 92v370q0 6 5 33q11 61 40 80q20 13 74 13q76 0 96 -19q27 -26 34 -124zM228 222q0 42 -3 89q-3 54 -25 175q-24 130 -65 130q-21 0 -29 -24q-5 -16 -9 -32v-109q10 -104 11 -113
q7 -56 20 -97q28 -95 61 -95q22 0 33 33q6 20 6 43z" />
    <glyph glyph-name="one" unicode="1" horiz-adv-x="275" 
d="M228 -1l-129 2q0 54 3 108q1 20 14 61q15 53 19 68q18 85 18 153q0 100 -45 100q-3 0 -36 -10t-37 -10t-6.5 1.5t-3.5 1.5q-4 3 -4 10q0 2 47 45q51 47 64 64q6 8 27 44q17 28 21 28q46 0 48 1v-667z" />
    <glyph glyph-name="two" unicode="2" 
d="M294 523q0 -112 -108 -221q-30 -30 -58 -82q-30 -56 -32 -91q7 -7 21 -7q126 0 126 95q0 15 -3 32q8 10 13 10q15 0 25 -50q8 -34 8 -52q0 -41 -27 -95q-30 -61 -64 -60h-158v55q0 84 58 230q26 55 52.5 109.5t26.5 102.5q0 36 -15 62q-18 32 -51 32q-43 0 -43 -49
q0 -33 21.5 -58.5l21.5 -25.5q0 -5 -6.5 -12t-12.5 -7q-20 0 -42 30q-19 27 -21 49q-5 49 22 93q29 48 76 56q57 9 98 -14q72 -41 72 -132z" />
    <glyph glyph-name="three" unicode="3" 
d="M290 212q0 -111 -64 -211h-123q-10 0 -33 37q-20 30 -25 44q-16 39 -16 88q0 31 12 68q16 52 44 52q22 0 22 -18q0 -2 -13 -32t-13 -45q0 -21 14 -45q18 -28 42 -28q33 0 48 54q8 30 8 63q0 50 -19 91q-26 56 -75 49l-7 7q2 3 53 55q42 43 42 68q0 23 -34 42
q-27 16 -41 16q-34 0 -34 -41q0 -13 6 -34q1 -2 7.5 -10.5t6.5 -11.5q0 -17 -17 -17q-20 0 -33 35q-10 28 -10 52q0 42 16 78q22 53 67 53q30 0 69 -20q43 -21 61 -50q10 -15 10 -44q0 -74 -77 -123q23 -11 48.5 -35t33.5 -44q24 -63 24 -143z" />
    <glyph glyph-name="four" unicode="4" 
d="M295 197q-7 -3 -40 0v-60q-2 -34 3 -137h-130q-1 -4 -1 40q0 64 30 157h-133q0 -1 0 2v7q0 110 30 234q35 142 94 228h70q26 -47 37 -121q5 -41 5 -103q0 -38 -1 -163q25 -4 36 -2v-82zM181 371q-8 157 -48 157q-18 0 -37 -104q-15 -87 -15 -118q0 -28 32 -28l59 1
q9 12 9 92z" />
    <glyph glyph-name="five" unicode="5" 
d="M277 252q0 -82 -23 -150q-35 -104 -112 -104q-48 0 -75 44q-22 35 -22 77q0 36 16 79q20 55 51 55q25 0 25 -21q0 -2 -18.5 -38.5t-18.5 -64.5q0 -25 11 -47q13 -26 36 -26q50 0 50 140q0 53 -13 96q-21 71 -72 71q-34 0 -45 -37h-15q-10 8 -10 24q0 55 19 171.5
t33 144.5h180v-21q1 -25 -21 -66q-7 -13 -20 -17q-29 -10 -60 -10q-4 0 -27 1.5t-26 1.5q-12 0 -21 -44q-8 -37 -9 -65q31 40 75 40q112 0 112 -234z" />
    <glyph glyph-name="six" unicode="6" 
d="M281 291q0 -62 -23 -161q-31 -130 -74 -130h-55q-3 0 -17 13q-18 16 -18 17q-56 103 -56 329q0 318 133 318q31 0 54.5 -23t23.5 -45q0 -14 -10 -29q-11 -19 -27 -19h-24q-1 11 -7 32q-8 14 -26 14q-33 0 -47 -68q-8 -40 -8 -82q0 -25 5 -54l42 50q41 46 55 46
q15 0 39 -37q19 -30 24 -45q16 -49 16 -126zM220 223q0 31 -17 79q-23 66 -59 66q-30 0 -30 -34q0 -38 18 -95q23 -75 58 -75q30 0 30 59z" />
    <glyph glyph-name="seven" unicode="7" 
d="M276 561l-58 -311v-73q1 -14 7 -52q4 -32 4 -35v-89h-142q-5 28 -1 120q2 29 14 84.5t25 90.5q24 51 49 102q41 90 41 120q0 40 -52 40q-42 0 -54 -6q-23 -10 -23 -47q0 -31 11.5 -62.5t12.5 -27.5v-15q-4 -4 -13 -4q-14 0 -20 9q-7 14 -15 27q-17 26 -20 67q1 -16 1 75
v92h233v-105z" />
    <glyph glyph-name="eight" unicode="8" 
d="M157 -2q-72 0 -96 21q-27 22 -27 90q0 127 -1 126q4 74 28 121q4 7 29.5 40t25.5 36l-37 61t-37 113q0 64 42 64h121q45 0 63 -15t18 -58q0 -48 -35.5 -122.5t-35.5 -67.5q0 -1 21.5 -30t24.5 -35q19 -41 19 -160v-100q-4 -44 -28 -62q-28 -22 -95 -22zM215 582
q0 40 -38 40q-61 0 -61 -60q0 -49 42 -89q57 63 57 109zM178 342q-14 -12 -23 -83q-7 -54 -7 -92q0 -33 10 -60q13 -37 40 -37t27 48q0 93 -3 123q-9 93 -44 101z" />
    <glyph glyph-name="nine" unicode="9" 
d="M278 355q0 -106 -14 -194q-20 -134 -64 -160h-81q-31 20 -51 65q-18 42 -18 83q0 50 18 73h17q6 -7 6 -10q0 -4 -1 -12t-1 -12q0 -22 19.5 -39t42.5 -17q32 0 50 32q16 28 16 62l-2 40q-14 -9 -27 -17.5t-35 -8.5q-111 0 -111 218q0 127 63 209q17 -1 46 0h47q7 0 22 -20
q12 -17 16 -27q42 -106 42 -265zM223 418q0 35 -10 69q-15 49 -41 49q-34 0 -51 -52q-12 -37 -12 -81q0 -38 10 -66q15 -39 45 -39q31 0 47 47q12 34 12 73z" />
    <glyph glyph-name="colon" unicode=":" horiz-adv-x="215" 
d="M160 314q0 -27 -14 -49q-16 -28 -44 -28q-26 0 -42 27q-14 22 -14 47q0 26 12 47q16 28 45 28q57 0 57 -72zM160 74q0 -27 -14 -49q-16 -28 -44 -28q-26 0 -42 27q-14 22 -14 47q0 26 12 47q16 28 45 28q57 0 57 -72z" />
    <glyph glyph-name="semicolon" unicode=";" horiz-adv-x="251" 
d="M46 -130l-9 28q63 32 66 106q-28 3 -46.5 23t-20.5 49q-1 32 20.5 55t52.5 25q40 2 64 -29q21 -27 23 -68q4 -67 -41 -120q-41 -48 -109 -69zM181 314q0 -28 -16 -51q-20 -29 -54 -29q-30 0 -50 28q-16 23 -16 49q0 27 14 49q19 29 54 29q68 0 68 -75z" />
    <glyph glyph-name="less" unicode="&#x3c;" horiz-adv-x="506" 
d="M466 582v-86l-341 -159l341 -158v-86l-433 207v75z" />
    <glyph glyph-name="equal" unicode="=" horiz-adv-x="312" 
d="M0 250h262v-69h-262v69zM0 380h262v-69h-262v69z" />
    <glyph glyph-name="greater" unicode="&#x3e;" horiz-adv-x="496" 
d="M34 93v86l341 158l-341 159v86l433 -207v-75z" />
    <glyph glyph-name="question" unicode="?" horiz-adv-x="366" 
d="M329 506q0 -58 -19 -94q-13 -24 -51 -61q-49 -46 -73 -77q-7 -9 -22 -92h-40l-14 137q0 44 54 102.5t54 107.5q0 76 -63 76q-13 0 -16 -1q-32 -11 -39 -39q-3 -12 -10 -50q-7 0 -47 3q-4 4 -4 11q0 60 34 102q36 47 99 47q77 0 119 -52q38 -47 38 -120zM207 66
q0 -26 -15 -46q-16 -23 -42 -23q-29 0 -45 26q-12 20 -12 44q0 26 16.5 49.5t41.5 23.5q27 0 43 -27q13 -21 13 -47z" />
    <glyph glyph-name="at" unicode="@" horiz-adv-x="711" 
d="M594 176h57q-36 -84 -115 -136t-170 -52q-142 0 -234 102q-90 99 -90 241q0 145 87 247q91 108 234 108q120 0 207 -81t87 -200q0 -78 -38 -146q-41 -70 -108 -104q-36 -17 -66 -17q-70 0 -63 79q-50 -74 -101 -74q-53 0 -86 44q-30 39 -30 94q0 79 54 150q57 75 133 75
q56 0 73 -61l15 53h82l-68 -269q-4 -18 -4 -28q0 -23 24 -23q18 0 41 18q42 31 69 91q25 57 25 112q0 100 -70.5 169.5t-169.5 69.5q-124 0 -202 -90q-73 -85 -73 -211q0 -128 75 -213q78 -89 204 -89q141 0 221 141zM365 468q-48 0 -85 -87q-31 -73 -31 -129q0 -72 45 -72
q48 0 83 91q30 74 30 131q0 66 -42 66z" />
    <glyph glyph-name="A" unicode="A" horiz-adv-x="378" 
d="M326 1h-141v29q0 82 6 99q2 7 16 30q9 15 9 34q0 8 -1 18q-38 -9 -75 -19q-43 -12 -72 -26q-1 -8 0 -165h-55q-1 66 -1 86q0 365 98 579h95q56 -91 92 -322q29 -188 29 -343zM209 322q0 39 -22 109q-27 83 -54 83q-29 0 -48 -99q-15 -77 -13 -125v-9q55 26 137 41z
M214 250v31q-26 -1 -72.5 -14t-71.5 -26l-1 -35q29 13 72 24q37 10 73 20z" />
    <glyph glyph-name="B" unicode="B" horiz-adv-x="375" 
d="M320 113q0 -37 -24 -73q-27 -40 -63 -40h-229q-1 26 -1 235v430h100q72 1 100 1q112 0 112 -108q0 -83 -72 -133q-33 -23 -145 -66v-20q35 4 101 36q4 1 35 20q28 16 31 16q20 0 39 -32q16 -28 16 -51v-215zM249 553q0 54 -49 54q-48 0 -77 -78q-22 -60 -22 -120
q54 12 98 50q50 43 50 94zM236 126q0 53 -23 113q-28 74 -71 74q-13 0 -41 -11v-11q0 -21 21 -61.5t21 -50.5v-129h46q47 0 47 76z" />
    <glyph glyph-name="C" unicode="C" horiz-adv-x="349" 
d="M301 259q0 -57 -18 -134q-20 -83 -47 -126h-149q-28 49 -52.5 135t-24.5 139v237q0 63 12 112q12 44 82 44h24q17 1 24 1q74 0 92 -5q51 -13 51 -64q0 -40 -36 -82q-29 -34 -70 -58q-35 -21 -48 -21q-12 0 -12 13q0 6 38 35.5t38 56.5t-35 50q-32 20 -61 20
q-38 0 -38 -56q0 -117 22 -226q34 -167 106 -167q57 0 57 92q0 16 -7 44t-7 32q0 14 15 14q20 0 33 -34q11 -28 11 -52z" />
    <glyph glyph-name="D" unicode="D" horiz-adv-x="370" 
d="M314 382q0 -113 -22 -209q-39 -172 -133 -172h-145q-9 7 -9 14v652l173 1q45 0 58 -5q20 -7 39 -38q39 -64 39 -243zM219 178q0 90 -1 117q-1 51 -18 114q-13 47 -25 94q-23 104 -62 104q-18 0 -21 -29q0 3 0 -43q0 2 -1 -27.5t-1 -51.5q0 -32 1 -49q3 -24 31 -128
q25 -89 22 -134q1 -30 -1 -90q35 -2 58 46q18 39 18 77z" />
    <glyph glyph-name="E" unicode="E" horiz-adv-x="370" 
d="M241 1h-156q-57 72 -71 235q-5 58 -5 256q0 90 7 115q18 59 85 59q21 0 62.5 1t62.5 1q82 0 82 -62v-132q-78 -25 -230 -80q-2 -26 3 -39q17 9 111.5 44.5t104.5 35.5q14 0 14 -17q0 -10 -8 -17q-73 -24 -216 -80q2 -47 27 -94q29 -56 70 -56q49 0 69 62q14 44 12 103
q7 6 16 6q33 0 33 -67q0 -66 -17 -138q-8 -33 -23 -76q-21 -60 -33 -60zM232 496v5q0 32 -47 69t-80 37q-29 0 -33 -73q0 -49 -1 -98q54 20 161 60z" />
    <glyph glyph-name="F" unicode="F" horiz-adv-x="375" 
d="M335 618l1 -150q-7 -2 -17 -6q-94 -20 -203 -74q2 -7 10 -23q41 20 74 32q97 36 122 36q3 0 5.5 -1.5t4.5 -1.5v-26q-4 -3 -11 -8q-76 -21 -96 -28q-54 -19 -82 -39q17 -39 35 -78q29 -63 29 -87v-164h-109q-36 0 -51 1.5t-27 12.5q0 15 2 24q6 2 13 0q9 -2 19.5 -2
t10.5 42q0 43 -16 142l-18 114q-12 110 -12 194q0 57 5 80q13 58 56 58h222q16 0 26 -18q7 -14 7 -30zM252 477q7 48 -49 91q-49 38 -91 38q-21 0 -22 -7.5t-4 -15.5q3 -3 0 -65q5 -35 23 -98q27 15 73 31q59 21 70 26z" />
    <glyph glyph-name="G" unicode="G" horiz-adv-x="365" 
d="M310 546q0 -57 -2 -66q-4 -15 -30 -25q-18 -6 -37 -12q-42 -14 -123 -44q-12 -4 -42 -22q1 -70 34 -143q41 -88 100 -88q35 0 35 37q0 28 -27 74q-29 51 -64 67q-13 3 -41 12v9q0 14 80 40q71 23 81 23q35 0 35 -55v-344q-13 -8 -22 -8h-129h-54q-21 4 -43 35
q-17 24 -26.5 49.5t-22.5 78.5q0 14 -3 46l-1 385q-3 72 92 72h118q67 0 82 -28q10 -18 10 -93zM228 496q0 27 -48.5 67t-82.5 40q-24 0 -29 -33v-55q0 -23 6 -90q5 3 90 34q64 25 64 37z" />
    <glyph glyph-name="H" unicode="H" horiz-adv-x="372" 
d="M315 0h-120v12q9 6 21 21q3 14 3 63q0 42 -9 120q-4 34 -25 70q-25 43 -54 43q-11 0 -22 -7q5 -41 9 -59q8 -21 15 -41q11 -31 11 -51v-169h-133v598q0 63 54 66q21 1 138 1q86 0 86 -80q0 -27 -25 -64q-27 -42 -62 -54.5l-35 -12.5l-15 6v12q89 45 89 100q0 19 -11 31.5
t-28 12.5q-50 0 -77 -88q-18 -58 -19 -107v-65q40 13 85 34q7 3 33 20q22 14 26 14q27 0 48 -37q18 -31 17 -53v-336z" />
    <glyph glyph-name="I" unicode="I" horiz-adv-x="215" 
d="M157 1h-143v190q31 81 40 116q15 55 15 121q0 111 -55 205v11v22h143v-665z" />
    <glyph glyph-name="J" unicode="J" horiz-adv-x="254" 
d="M199 -39q2 -22 -14 -62q-14 -35 -57 -54q-34 -15 -65 -15q-46 0 -77 23q-36 26 -36 72q0 48 35 48q25 0 25 -22q0 -5 -1 -15.5t-1 -15.5q0 -20 21 -20q26 0 32 35q2 7 2 46v186q0 18 12 53q33 92 33 198q0 107 -28 174q-2 5 -17 36q-11 23 -11 27v11h147v-705z" />
    <glyph glyph-name="K" unicode="K" horiz-adv-x="377" 
d="M323 -2h-101v43q1 34 1 56q0 133 -26 178q-5 7 -27.5 31.5t-26.5 24.5q-12 0 -23 -7t-11 -17q0 -15 14 -53q18 -45 20 -54q9 -38 9 -100q-1 -79 1 -101l-140 -2q3 50 2 126q-3 121 -3 126l1 394q0 9 11.5 16t20.5 7h139q48 0 48 -61q0 -17 -3.5 -36t-27.5 -59
q-27 -44 -41 -44t-16 19q53 79 53 107q0 23 -20 23q-19 0 -40 -35q-39 -64 -39 -190q0 -4 1.5 -11t1.5 -11h-1q0 -2 5 -2q1 0 18 12q93 69 122 139q9 23 13 82q3 55 10 64l13 1q27 1 35 -13q5 -9 5 -40q0 -99 -84 -190v-2q0 -2 3 -4q45 -28 62 -51q21 -30 21 -77v-289z" />
    <glyph glyph-name="L" unicode="L" horiz-adv-x="377" 
d="M333 55q0 -41 -8.5 -48t-52.5 -7h-266v109q-1 28 0 68v489h216v-18q-124 -35 -124 -238q0 -74 39 -168q9 -22 9 -52v-142h37h25q49 0 42 0q29 3 29 23q0 43 -31 124q-35 91 -68 91q2 0 -24 -11q-7 6 -7 14q0 17 34 70.5t51 53.5q59 0 85 -171q14 -95 14 -187z" />
    <glyph glyph-name="M" unicode="M" horiz-adv-x="503" 
d="M446 -1h-137v152q0 21 20 93.5t20 134.5q0 28 -3 53q-3 17 -15 46q-16 39 -30 39q-21 0 -63 -107q0 -2 8 -32q8 -34 10 -46q18 -102 18 -150q0 -43 -13 -104q-14 -66 -27.5 -72.5t-55.5 -6.5h-44q-36 12 -36 75q0 60 27 151t27 94q0 15 -27 99q-31 94 -50 94
q-15 0 -15 -15v-468q0 -27 -1 -30h-53v642q2 5 9 15.5t11 10.5q-11 -1 57 -1q59 0 67.5 -4t26.5 -51q11 -30 41 -121q23 58 78 169q4 7 71 7q-2 0 15 1t28 1q17 -1 25 -6q12 -7 13 -29q-1 36 -1 -38zM206 63q0 13 -31 160q-36 -106 -36 -158q0 -18 6.5 -23.5t25.5 -5.5
q18 0 23 3q12 5 12 24z" />
    <glyph glyph-name="N" unicode="N" horiz-adv-x="376" 
d="M319 373l-3 -164l-16 -211h-93q-17 89 -34 167q-42 186 -74 286q0 9 -8 27q-7 0 -15 -11q-1 -13 -1 -91l2 -378q-9 0 -30 1t-32 1v667h113q12 0 47 -77h2q15 28 31.5 55t52.5 27q58 0 58 -299zM270 371q-3 41 -10 100q-10 89 -40 89q-16 0 -23 -31l71 -304z" />
    <glyph glyph-name="O" unicode="O" horiz-adv-x="371" 
d="M321 250q0 -46 -21.5 -129.5t-44.5 -121.5h-179q-26 41 -45.5 106t-19.5 113l-1 362q0 88 85 88h138q88 0 88 -74v-344zM261 330q0 92 -29 173q-39 108 -113 108q-19 0 -33 -19t-14 -39v-86q6 -35 11 -70q7 -42 20 -66l36 -70q21 -43 27 -73q3 -18 10 -54q8 -6 14 -6
q14 0 32 27q14 22 19 41q20 69 20 134z" />
    <glyph glyph-name="P" unicode="P" horiz-adv-x="363" 
d="M323 525q0 -159 -187 -282q22 -64 22 -78v-167h-139v668h115h112q4 0 19.5 -7t21.5 -14q3 -2 13 -14.5t17 -50.5q6 -32 6 -55zM207 451q0 89 -55 143q-5 5 -23 4q-9 -4 -16 -50q-6 -40 -6 -67q0 -76 17 -188q83 42 83 158z" />
    <glyph glyph-name="Q" unicode="Q" horiz-adv-x="413" 
d="M364 31q0 -22 -2 -32h-95q1 5 -1 8q1 5 1 32q0 3 -1 9v10q0 22 -3 39q1 0 -4 5q-19 -53 -38 -101q-5 -3 -15 -3h-39.5h-59.5q-54 100 -75 202q-17 78 -17 187q0 254 92 280q4 1 70 1q67 0 80 -1q44 -5 67 -111q16 -74 16 -145q0 -61 -14.5 -126t-14.5 -58q0 -3 10 -21
q12 -22 15 -29q28 -74 28 -146zM254 277v55q1 46 -29 148q-39 132 -90 132q-23 0 -33 -49q-6 -29 -6 -57q0 4 1.5 -14t1.5 -56q15 -127 41 -207q6 -8 9 -8q5 23 31 43.5t46 20.5q6 0 28 -8zM238 184q0 11 -11.5 22.5t-25.5 11.5q-12 0 -23.5 -11.5t-11.5 -25.5q0 -11 9 -24
q12 -17 27 -17q13 0 24.5 14t11.5 30z" />
    <glyph glyph-name="R" unicode="R" horiz-adv-x="384" 
d="M332 -1h-104l-13 6l-2 134q0 7 1 21v20q0 119 -54 119q-8 0 -23 -4.5t-15 -9.5l10.5 -29.5t10.5 -43.5v-213h-135v668h220q37 0 62 -29.5t25 -67.5q0 -80 -66 -142q-59 -55 -143 -74q6 -25 8 -25q31 0 145 72q11 0 29 -19.5t21 -32.5q6 -25 6 -43v-210q0 -20 1 -68z
M205 515q0 98 -67 98q-26 0 -38 -67q-7 -41 -7 -89q0 -71 0 -64h15q54 21 74 42q23 27 23 80z" />
    <glyph glyph-name="S" unicode="S" horiz-adv-x="371" 
d="M315 76q0 -35 -22 -56.5t-54 -21.5h-28q-25 1 -29 1h-61q-68 2 -85 39q-11 24 -11 119q0 75 6 103q17 84 78 84q9 0 14 -9.5t10 -18.5q78 -129 88 -268q1 -2 5 -2q13 0 13 39q0 61 -28.5 139t-71.5 131q-29 33 -81 97q-14 19 -25 60t-11 75q0 61 37 73q33 12 108 7
q78 -6 103 0q12 3 28.5 -8t16.5 -29v-95q0 -15 -4 -35q-2 -11 -26.5 -31.5t-34.5 -20.5q-8 0 -14.5 8t-6.5 11q0 4 8 16t8 15q0 37 -61 82q-56 40 -84 40q-22 0 -22 -20q0 -25 62 -83q102 -97 113 -110q62 -68 62 -118v-213zM188 57q0 24 -16 76q-20 69 -47 69
q-24 0 -40 -39q-12 -31 -12 -62q0 -58 63 -58q55 0 49 1l1.5 4.5t1.5 8.5z" />
    <glyph glyph-name="T" unicode="T" horiz-adv-x="409" 
d="M370 600q0 -48 -18 -109q-21 -67 -50 -96h-12q-1 3 -1 10t1 17t3 24t3.5 24t1.5 17q0 36 -19 75q-23 47 -52 47q-13 0 -13 -8q0 -12 10 -45q6 -20 9.5 -32.5t4.5 -17.5q11 -62 16.5 -123t5.5 -122q0 -26 -6 -75q-2 -25 -3.5 -43.5t-1.5 -30.5q0 -18 3 -46.5t8 -67.5h-150
v70q-2 82 18 150q16 48 31 98.5t15 101.5q0 20 -1.5 44.5t-5.5 52.5q-9 76 -24 89q-42 -11 -42 -104q0 -19 17 -51q17 -33 16 -49q-14 -3 -11 -3q-17 0 -42 28q-65 71 -65 180q0 40 19 52q13 10 55 10h236q5 -2 11.5 -4.5t15.5 -5.5q17 -20 17 -57z" />
    <glyph glyph-name="U" unicode="U" horiz-adv-x="382" 
d="M327 0l-208 -1q-20 0 -52 14q-58 26 -58 157q0 59 32 176q1 4 14 43q12 34 12 39q0 -2 -23 51t-23 83q0 113 92 113q43 0 65 -63q15 -45 15 -100q0 -52 -13 -115q33 -21 54 -20q7 38 7 79q0 81 -47 208h133v-664zM104 586q0 29 -23 29t-23 -41q0 -14 10 -52
q10 -42 17 -46q19 68 19 110zM228 336q-16 4 -32 9t-28 15q-4 -17 -36 -117q-25 -79 -25 -113q0 -32 12 -57q15 -31 44 -33l29 -1q-1 68 -1 75q0 90 37 222z" />
    <glyph glyph-name="V" unicode="V" horiz-adv-x="382" 
d="M334 508q0 -8 -6 -90q-17 -212 -86 -419h-125q-27 62 -61 197q-9 36 -23 139q-15 113 -15 162v169h160q-67 -87 -67 -223q0 -71 40 -156q47 -99 58 -165q2 -4 6 -10h10q12 15 20 55q14 79 14 165q0 47 -7 95q-14 89 -45 89q-8 0 -14 -11.5t-6 -18.5v-68q0 -3 2.5 -13
t2.5 -14q0 -6 -5.5 -13t-10.5 -7q-15 0 -22 44q-5 27 -5 46q0 54 23 119q32 92 87 92q45 0 64 -73q11 -43 11 -91z" />
    <glyph glyph-name="W" unicode="W" horiz-adv-x="535" 
d="M474 178q0 -66 -31 -180h-92l-45 101q-26 -45 -51 -91q-8 -11 -62 -11q-3 0 -14 1h-19q-59 101 -103 299q-43 186 -43 317v52l429 1q37 0 37 -33q0 -8 -2 -26.5t-2 -28.5q0 -25 -20 -129q-2 -11 -11 -39t-9 -31t8 -11.5t10 -12.5q20 -49 20 -80v-98zM382 497
q0 113 -40 113q-15 0 -20 -20.5t-10 -40.5q3 -3 0 -83q9 -74 13 -97q9 -60 18 -79q39 110 39 207zM428 195q0 21 -8 44q-9 27 -23 35q-28 -45 -28 -63q0 -13 13 -40.5t22 -35.5h12q12 21 12 60zM277 164q0 -5 -42 128q-40 125 -55 300q-1 4 -6 9.5t-9 5.5q-21 0 -31 -51
q-7 -35 -7 -72q0 -42 9.5 -94.5t45.5 -130.5q31 -64 61 -129q5 -6 12 -6q22 28 22 40z" />
    <glyph glyph-name="X" unicode="X" horiz-adv-x="374" 
d="M342 667q-19 -22 -67 -92q-51 -77 -51 -89q0 6 36 -101q60 -177 60 -261v-124h-133q-9 61 -9 60v101q0 13 3.5 37.5t3.5 36.5q0 69 -20 116h-2q-86 -185 -77 -351h-80v22q0 30 12 86q2 14 23 73q19 55 19 61q0 2 -16 38t-18 45q-15 63 -15 180q0 162 32 162h80
q15 0 42 -56q17 -36 33 -73q19 24 86 129h58zM140 428q0 17 -22 53q-25 40 -44 41q-20 -19 -20 -74q0 -30 9 -78q9 -59 23 -70q54 127 54 128z" />
    <glyph glyph-name="Y" unicode="Y" horiz-adv-x="346" 
d="M298 568q0 -146 -22 -270q-8 -95 -40 -176q-52 -133 -143 -133q-34 0 -41 4q-46 23 -46 111q0 22 10 58q12 44 26 44h17q5 -5 5 -13q0 -5 -2.5 -14.5t-2.5 -14.5q0 -33 37 -33q18 0 47 23.5t29 36.5q0 -1 -74 111q-40 61 -68 164q-27 98 -27 173q0 2 -2 12.5t-2 15.5h149
q-8 -55 -8 -114q0 -225 63 -315q16 14 28 92q11 69 11 122q0 40 -8 87q-12 64 -32 64q-3 0 -8.5 -4t-7.5 -4q-4 0 -7 1.5t-4 1.5v11q0 12 20 32q14 14 23 20q24 15 39 15q6 0 27 -9q14 -26 14 -99z" />
    <glyph glyph-name="Z" unicode="Z" horiz-adv-x="390" 
d="M341 83q0 -92 -1 -84h-313v144q0 14 5 37q6 27 7 36q6 61 103 199q94 133 94 179q0 36 -32 36q-33 0 -59.5 -37t-26.5 -70q0 -5 6.5 -21t6.5 -21q0 -9 -9 -17q-34 8 -66 67q-30 55 -30 94q0 26 12 42h283q1 -24 1 -33q0 -73 -29 -141q-12 -27 -63 -116q-41 -73 -57 -129
q-7 -24 -7 -38q0 -16 6 -51q8 -41 9 -53q3 -25 -1 -59q3 -4 13 -4q35 0 58 75q17 58 17 106q0 21 -9.5 55t-9.5 44q0 16 14 16q20 0 51 -90q27 -77 27 -166z" />
    <glyph glyph-name="bracketleft" unicode="[" horiz-adv-x="163" 
d="M149 727q-112 3 -112 0v-404t0 -400t57.5 0.5t57.5 -0.5v51q-49 -3 -49 0v353v351h46v49z" />
    <glyph glyph-name="backslash" unicode="\" horiz-adv-x="393" 
d="M10 676l316 -704l35 18l-315 704z" />
    <glyph glyph-name="bracketright" unicode="]" horiz-adv-x="207" 
d="M39 -77q113 -2 113 0v404t0 400t-57.5 -0.5t-57.5 0.5v-51q49 3 49 0v-353l-1 -351h-46v-49z" />
    <glyph glyph-name="asciicircum" unicode="^" horiz-adv-x="385" 
d="M90 698l162 116l161 -116l-23 -11l-141 46l-139 -49z" />
    <glyph glyph-name="underscore" unicode="_" horiz-adv-x="491" 
d="M7 -81h519v-35h-519v35z" />
    <glyph glyph-name="grave" unicode="`" horiz-adv-x="248" 
d="M261 705l-193 27q8 19 26 74l171 -88z" />
    <glyph glyph-name="a" unicode="a" horiz-adv-x="342" 
d="M297 0l-109 -1q-20 25 -20 59q0 6 1 12q-16 -20 -33 -40q-26 -32 -32 -32q-86 0 -90 116q-3 73 7 104q6 17 28 38t35 53q0 -3 -34 42.5t-34 80.5q0 59 69 59q129 0 118 1q63 -5 63 -117l-1 -284q0 -20 13 -47q17 -37 19 -44zM138 454q-14 0 -23 -20q-7 -15 -7 -31
q0 -25 19.5 -57t41.5 -47v29v72q-5 54 -31 54zM167 195q0 45 0 38l-55 55q-9 -19 -21 -49q-6 -24 -6 -50q0 -78 55 -78q22 0 26 33q1 2 1 51z" />
    <glyph glyph-name="b" unicode="b" horiz-adv-x="326" 
d="M269 109q0 -40 1 -34q-8 -54 -56 -69q-20 -7 -74 -7q-63 0 -73 2q-39 7 -46 40t-7 31v506q0 73 31 85q10 4 69 4q6 0 21 1t23 1q61 0 61 -50q0 -36 -40 -71l-70 -56q-7 -6 -8 -35q-1 -28 2 -34q91 74 90 74q20 0 45 -17q31 -22 31 -55v-316zM189 611q0 18 -22 18
q-24 0 -42 -41q-10 -30 -20 -61l18 6q25 12 45.5 36t20.5 42zM198 134q0 46 -16 124q-22 111 -57 111q-23 0 -23 -61q0 -63 14 -136q19 -102 53 -102q29 0 29 64z" />
    <glyph glyph-name="c" unicode="c" horiz-adv-x="300" 
d="M251 152q0 -36 -21 -89q-25 -64 -53 -64h-59q-67 0 -96 125q-18 78 -18 180q0 188 70 188h78q96 0 96 -69q0 -36 -33 -81q-36 -47 -71 -47q2 0 -14 3v15q38 23 38 50q0 25 -22 52.5t-46 27.5q-32 0 -31 -46l1 -19q4 -136 59 -235q16 -29 34 -29q22 0 35 26q11 21 11 46
q0 22 -4 38q3 8 11 8q18 0 28 -33q7 -24 7 -47z" />
    <glyph glyph-name="d" unicode="d" horiz-adv-x="314" 
d="M259 0q3 -1 -100 -1q-108 0 -132 31q-16 20 -16 108l-1 214q0 51 9 84q6 20 32.5 38t47.5 18q12 0 38 -35q16 -24 32 -47q3 8 3 23q0 49 -8 85l-8 64q-10 41 -39 41q6 0 -35 -8q-9 8 -9 17q0 15 38 26q30 9 52 9h96v-667zM175 323q0 29 -32 29q-35 0 -52 -89
q-12 -61 -12 -126q0 -59 20 -80q14 -14 22 -14h26q1 12 1 120q0 28 13.5 80.5t13.5 79.5z" />
    <glyph glyph-name="e" unicode="e" horiz-adv-x="317" 
d="M262 178q0 -34 -19 -93q-20 -62 -40 -85l-123 -1q-70 95 -70 330q0 164 61 164h116q57 0 71 -59q5 -20 5 -104q-112 -29 -174 -57q0 -32 21 -89q24 -67 48 -67q29 0 47 34q15 28 15 59q-1 13 -2 39q3 4 12 4q16 0 25 -31q7 -23 7 -44zM199 359q-8 29 -33 56
q-27 31 -54 31q-36 0 -36 -83q0 -24 3 -44q40 13 120 40z" />
    <glyph glyph-name="f" unicode="f" horiz-adv-x="254" 
d="M212 563q0 -77 -20 -149q-26 -91 -74 -125q29 -80 29 -159v-131h-118v612q0 57 102 57q53 0 69 -27q12 -19 12 -78zM174 538q0 64 -20 64q-16 0 -34 -43q-17 -39 -17 -60q0 -4 2 -7h64q5 29 5 46zM158 418v12q-5 -1 -33 -1q-26 1 -26 0q0 -44 13 -95q14 5 30 36t16 48z
" />
    <glyph glyph-name="g" unicode="g" horiz-adv-x="301" 
d="M143 -161h-54q-76 0 -76 45q0 29 41.5 60.5t71.5 31.5q-2 0 13 -3q3 -11 3 -8q0 -8 -13.5 -16t-13.5 -14q0 -14 20.5 -27.5t34.5 -12.5q10 8 11 18q5 29 5 103q0 22 -8 52q-4 -11 -40 -38t-47 -27q-29 0 -55 31.5t-26 61.5v333q0 36 16 50.5t53 14.5q9 0 27.5 -1t27.5 -1
q71 0 55 1q42 -2 46 -15q10 -34 10 -83v-74q-1 -51 -1 -75v-81q0 -233 -1 -249q-2 -45 -30 -63q-22 -14 -70 -14zM169 155q0 52 -21 151q-24 122 -53 122q-28 0 -28 -39q0 -56 11 -135q14 -101 35 -124q13 -14 32 -14q24 0 24 39z" />
    <glyph glyph-name="h" unicode="h" horiz-adv-x="314" 
d="M256 -2q-8 1 -89 0v249q0 37 -7 70q-12 58 -40 58q-18 0 -23 -10q-2 -5 -2 -23q0 -30 14.5 -85.5t14.5 -82.5v-175h-112v614q0 37 45 48q18 4 63 4t60 -4q36 -10 36 -48q0 -65 -117 -124q-4 -2 -2 -68q19 20 39 40q38 38 45 38q31 0 53 -28t22 -57v-416zM189 613
q0 20 -20 20q-18 0 -40 -20.5t-27 -38.5q-2 -8 -2 -51q26 3 57.5 35t31.5 55z" />
    <glyph glyph-name="i" unicode="i" horiz-adv-x="198" 
d="M138 594q0 -23 -23.5 -44t-44.5 -21q-45 0 -45 69q0 19 9 38q12 25 31 25q27 0 50 -24.5t23 -42.5zM139 0h-111v203q0 6 14.5 51t14.5 97q0 47 -2 64q-7 41 -30 65v13h114v-493z" />
    <glyph glyph-name="j" unicode="j" horiz-adv-x="186" 
d="M128 585q0 -17 -25.5 -41.5t-41.5 -24.5q-20 0 -33 24q-10 19 -10 42q0 22 8 42q11 26 31 26q22 0 46.5 -23t24.5 -45zM131 -29q0 -126 -97 -126q-50 0 -72 30v15q27 -5 32 -5q19 0 21 19q3 26 5 29q2 13 1 14v194q0 9 8 33q10 32 10 34q14 58 14 126q0 108 -48 148v12
h126v-523z" />
    <glyph glyph-name="k" unicode="k" horiz-adv-x="322" 
d="M282 0h-107v183q0 18 -14 34t-32 16q-19 0 -19 -12q0 -11 4 -32t4 -32q0 -26 1.5 -78.5t1.5 -79.5h-110v666h129v-9q0 -2 -12.5 -22t-13.5 -24q-7 -15 -19 -75t-12 -77q0 -2 2 -34q7 5 39 43q29 35 36 35q-3 0 22 -7q30 -10 51.5 -35t21.5 -56q0 -27 -15 -48t-30 -41
q0 -4 17.5 -16.5t21.5 -17.5q14 -22 14 -85v-80q0 -57 0 -55q3 -35 19 -49v-12zM169 339q0 17 -17 33.5t-34 16.5q-11 0 -32 -16q3 -69 17 -115q26 7 46 31t20 50z" />
    <glyph glyph-name="l" unicode="l" horiz-adv-x="192" 
d="M137 -1h-120v209q0 12 5 50q7 43 7 46q2 20 10 74q5 29 5 85q0 151 -46 188v15l108 1q25 0 31 -4v-664z" />
    <glyph glyph-name="m" unicode="m" horiz-adv-x="495" 
d="M447 -1q-14 -1 -30 -1q-14 0 -42 1.5t-42 1.5l-1 316q0 43 -31 43q-7 0 -15.5 -7.5t-9.5 -14.5q-3 -19 -3 -57q0 -24 1 -68q1 -47 1 -59v-153h-90v292q0 70 -37 70q-48 0 -48 -52q0 -32 15 -82t15 -69v-160q-2 -1 -8 -1q-17 0 -53 1h-53v492h97q3 -3 3 -7l-16 -63l2 -15
q3 3 47 50q40 43 43 43q31 0 58 -34.5t27 -66.5q22 26 70 98q55 1 75 -56q12 -35 12 -103v-278q0 -12 13 -61z" />
    <glyph glyph-name="n" unicode="n" horiz-adv-x="332" 
d="M275 403l-1 -402q-14 0 -46.5 -1t-48.5 -1v278q0 20 -10 47q-14 39 -36 39q-7 0 -19 -7.5t-14 -13.5q1 2 1 -30q0 -35 13 -88t13 -67v-157l-110 -1v491h102q-5 -22 -15 -68v-12q88 87 90 87q19 0 47 -23t30 -41q1 -9 4 -30z" />
    <glyph glyph-name="o" unicode="o" horiz-adv-x="312" 
d="M258 425v-297q-6 -72 -52 -128h-136q-35 39 -47 83q0 1 -11 73v260q0 31 18.5 53t51.5 22h106q67 1 70 -66zM197 220q0 46 -18 111q-26 98 -72 98q-15 0 -25 -30q-7 -23 -7 -43q0 -62 14 -131q22 -105 65 -105t43 100z" />
    <glyph glyph-name="p" unicode="p" horiz-adv-x="317" 
d="M262 131q0 -24 -12.5 -58.5t-27.5 -47.5q-18 -16 -46 -21l-46 -4v-162q-57 -1 -116 0v653l97 2q-3 -11 -8 -31.5t-8 -31.5l2 -12q16 19 50 52q1 1 18 20q7 7 19 7q78 0 78 -94v-272zM183 152q0 55 -9 112q-16 102 -53 102q-26 0 -26 -33q0 -73 33 -276h20q35 0 35 95z
" />
    <glyph glyph-name="q" unicode="q" horiz-adv-x="309" 
d="M253 -167h-114v124q0 4 6 38q-7 1 -40 1q-103 0 -103 140l-1 217q4 16 8 46q1 50 35 77t64 20q19 -25 60 -72q1 2 1 10q0 24 -10 58q3 3 94 1v-660zM169 279q0 42 -2 53q-6 40 -32 40q-30 0 -48 -91q-11 -61 -11 -96q0 -122 51 -122q12 0 22 7q20 65 20 209z" />
    <glyph glyph-name="r" unicode="r" horiz-adv-x="274" 
d="M229 375q0 -93 -29 -93q-13 0 -19 24q-12 40 -14 45q-12 24 -37 24q-17 0 -33 -16q-3 -3 -3 -21q0 -25 16.5 -93.5t16.5 -106.5l1 -139h-121l2 494l99 -1q-10 -37 -16 -61l1 -18q43 57 65 79q1 1 13 1q45 0 51.5 -31.5t6.5 -86.5z" />
    <glyph glyph-name="s" unicode="s" horiz-adv-x="305" 
d="M252 108q0 -60 -13 -82.5t-43 -25.5q-2 -1 -74 -1q-76 0 -88 6q-31 13 -31 79q0 69 2 80q8 52 46 77q2 0 7 -8q15 -20 29 -40q28 -40 28 -48q0 -4 -3 -11t-3 -8q-4 1 -12 4.5t-12 3.5q-22 0 -33 -54q0 -25 25 -32q8 -2 36 -2q42 0 49 12q5 58 -36 127q-39 58 -77 116
q-43 68 -43 119q0 44 16 61q13 12 43 12q7 0 23.5 -1t26.5 -1t28 1t26 1q39 0 56 -13q22 -17 22 -62q0 -24 -14 -55q-16 -38 -38 -38q-14 0 -14 15q0 3 5.5 14t5.5 14q0 29 -41 54q-33 20 -49 20q-19 0 -19 -16q0 -28 39 -71q33 -32 66 -65q27 -27 28 -27q13 -15 18 -31
q18 -25 18 -124z" />
    <glyph glyph-name="t" unicode="t" horiz-adv-x="231" 
d="M190 620q0 -2 -23 -31q-26 -33 -33.5 -47t-22.5 -45v-9h70q4 -4 4 -13q0 -86 -20 -113h-16l-5 39q-4 26 -24 26q-2 0 -10.5 -1t-13.5 -1l-2 -2q-4 -67 9 -137q4 -17 15 -60q9 -38 9 -41v-180q-6 -6 -9 -6q-119 0 -111 0v495q0 9 39 47q31 32 41 38l40 32q32 24 44 24
q19 0 19 -15z" />
    <glyph glyph-name="u" unicode="u" horiz-adv-x="318" 
d="M260 0h-168q-86 0 -86 136v355h114l-32 -337q-3 -28 7 -59q13 -38 38 -38q19 0 19 23q-1 27 0 82q2 24 13 119q8 73 8 118q0 46 -11 92h98v-491z" />
    <glyph glyph-name="v" unicode="v" horiz-adv-x="303" 
d="M236 252q-19 -125 -61 -253h-86q-23 34 -53 184q-27 140 -27 196v113q234 0 243 -1v-97q0 -32 -16 -142zM187 306q0 42 -10 92q-14 74 -38 72h-5l-2 -1q-21 -19 -22 -88q-3 -174 42 -231l9 -3q11 13 19 76q7 50 7 83z" />
    <glyph glyph-name="w" unicode="w" horiz-adv-x="427" 
d="M377 458q0 -48 -2 -92q-11 -173 -63 -366h-80q-18 53 -38 132q-2 0 -5 -5q-5 -34 -29 -127h-85q-18 45 -43 177q-28 141 -28 205v109h367q6 -6 6 -33zM315 291q0 48 -10 101q-15 75 -41 75q-27 0 -27 -85q0 -40 10 -123q15 -116 37 -116q15 0 24 66q7 47 7 82zM174 191
q0 4 -5.5 32.5t-6.5 37.5q-7 49 -16 151q0 18 -2 46q-2 9 -14 9q-31 0 -31 -90q0 -64 12 -139q15 -84 35 -103q5 3 11 8q17 31 17 48z" />
    <glyph glyph-name="x" unicode="x" horiz-adv-x="320" 
d="M272 14q0 -8 -3 -15h-113v51.5v36.5v84q0 8 -7.5 37t-13.5 38q-2 0 -5 -5q-47 -125 -45 -242h-72v25q0 58 47 178t47 110q0 14 -20 45q-18 28 -27 35q-12 -4 -12 -18q0 -19 11 -52q-4 -3 -11 -3q-33 0 -33 92q0 61 17 81h76q14 0 35 -42q12 -24 23 -48q4 0 5 2
q5 11 30 45q31 43 44 43q19 0 19 -25q0 -8 -37.5 -61.5t-37.5 -55.5q0 3 17 -38q25 -56 45 -147q21 -94 21 -151z" />
    <glyph glyph-name="y" unicode="y" horiz-adv-x="304" 
d="M250 354q0 -125 -18 -251q-24 -163 -70 -236q-6 -10 -26 -18t-34 -8q-3 0 -9.5 2t-10.5 2q-62 0 -62 119q0 35 22 35q7 0 15 -20t23 -20q13 0 30.5 17.5t17.5 30.5q-121 213 -121 485h121q0 -20 -6.5 -58.5t-6.5 -56.5v-87q0 -91 55 -180q11 32 20 142q0 4 2 18
q1 11 1 18v91q0 27 -11 60q-2 4 -13 21t-11 20q0 -3 3 11h83z" />
    <glyph glyph-name="z" unicode="z" horiz-adv-x="299" 
d="M249 0h-243v108q-1 3 4 24.5t5 27.5q4 42 77 143t73 138q0 19 -20 19q-26 0 -51.5 -27.5t-25.5 -53.5q0 -15 10 -28v-13q-1 0 -5.5 -1.5t-7.5 -1.5q-23 0 -39 52q-13 39 -13 65q0 40 18 40h197q5 -13 5 -27q0 -63 -53 -157q-58 -102 -64 -148v-121q4 -5 11 -5q23 0 37 35
q11 24 23 72q4 47 4 43q0 6 -3.5 20.5t-3.5 18.5v11q4 3 9 3q20 0 40 -65q16 -56 16 -71v-101z" />
    <glyph glyph-name="braceleft" unicode="{" horiz-adv-x="406" 
d="M221 270q-25 -50 -43 -68q-29 -30 -73 -30q-39 0 -67 25t-28 64q0 37 25 63t62 26q45 0 46 -16q-4 -4 -13 -3q-16 3 -15 3q-26 0 -45 -18.5t-19 -44.5q0 -24 17.5 -42t42.5 -18q49 0 89 95l-40 89l3 2q8 0 47 -64q46 100 96 100q19 0 28.5 -16.5t9.5 -36.5l1 -223h-69z
M301 398q-16 2 -19.5 -2.5t-3.5 -8.5q-23 -26 -46 -90q49 -83 56 -83q1 0 1 1v61q20 24 20 48q0 -1 2 24q2 21 0 33q-2 16 -10 17z" />
    <glyph glyph-name="bar" unicode="|" horiz-adv-x="286" 
d="M224 370q-26 -8 -78 -29q-29 -18 -80 -47v99h158v-23zM225 240h-156q-1 1 -1 14q-1 13 1 14q55 43 155 77q3 -4 1 -105z" />
    <glyph glyph-name="braceright" unicode="}" horiz-adv-x="396" 
d="M141 270q26 -50 43 -68q29 -30 73 -30q39 0 67 25t28 64q0 37 -25 63t-62 26q-45 0 -46 -16q4 -4 13 -3q16 3 15 3q26 0 45 -18.5t19 -44.5q0 -24 -17.5 -42t-42.5 -18q-49 0 -89 95l40 89l-3 2q-8 0 -47 -64q-46 100 -96 100q-19 0 -28.5 -16.5t-9.5 -36.5l-1 -223h69z
M61 398q16 2 21 -4q2 -3 2 -7q23 -26 46 -90q-49 -83 -56 -83q-1 0 -1 1v61q-20 24 -20 48q0 -1 -2 24q-2 21 0 33q2 16 10 17z" />
    <glyph glyph-name="asciitilde" unicode="~" horiz-adv-x="482" 
d="M175 702l-26 16q17 31 50 57.5t55 25.5q57 -3 85 -14q60 -22 85 -22q40 0 64 33l28 -22q-15 -29 -52.5 -56t-57.5 -25q-62 6 -98 19.5t-59 13.5q-38 0 -74 -26z" />
    <glyph glyph-name="dagger" unicode="&#x2020;" horiz-adv-x="381" 
d="M173 461q-22 -1 -57 -16.5t-52 -15.5q-43 0 -43 45q0 48 44 48q16 0 50.5 -17.5t57.5 -19.5q-1 33 -21.5 74t-20.5 54q0 22 15.5 34.5t37.5 12.5q53 0 53 -47q0 -14 -21 -54t-21 -74q23 2 57.5 19.5t50.5 17.5q44 0 44 -49q0 -50 -44 -50q-15 0 -49.5 18t-58.5 20
q5 -86 54 -137q-34 -66 -44 -158q-4 -33 -7 -166h-28q-3 132 -7 166q-10 92 -44 158q48 52 54 137z" />
    <glyph glyph-name="degree" unicode="&#xb0;" horiz-adv-x="307" 
d="M146 659q45 0 75.5 -32.5t30.5 -78.5q0 -45 -30.5 -77.5t-75.5 -32.5q-44 0 -75 32.5t-31 77.5q0 46 31 78.5t75 32.5zM146 614q-25 0 -43 -19t-18 -47q0 -27 18 -46t43 -19t43 19t18 46q0 28 -18 47t-43 19z" />
    <glyph glyph-name="section" unicode="&#xa7;" horiz-adv-x="166" 
 />
    <glyph glyph-name="bullet" unicode="&#x2022;" horiz-adv-x="398" 
d="M86 314q0 53 38 90.5t91 37.5q54 0 92 -37.5t38 -90.5q0 -54 -38 -91.5t-92 -37.5q-53 0 -91 37.5t-38 91.5z" />
    <glyph glyph-name="paragraph" unicode="&#xb6;" horiz-adv-x="395" 
d="M126 199q-55 0 -93 69t-38 167q0 108 39 171q39 60 101 60h220l-1 -58h-50l-1 -713h51v-59h-287v55q17 0 59 1v307zM235 611h-42v-720h42v720z" />
    <glyph glyph-name="registered" unicode="&#xae;" horiz-adv-x="448" 
d="M215 667q75 0 128.5 -54.5t53.5 -129.5q0 -76 -54 -130t-130 -54t-130 54t-54 130q0 77 54 130.5t132 53.5zM211 641q-63 0 -107 -47t-44 -110q0 -64 44.5 -110t108.5 -46t108.5 46t44.5 110q0 65 -45 111t-110 46zM191 476v-51q0 -19 2 -20.5t29 -1.5v-18h-110v18
q25 0 28 1v21v115v20q-5 2 -28 2v18h119q73 0 73 -50q0 -38 -48 -48q22 -10 27.5 -30.5t9.5 -41.5q3 -1 6 -3q11 0 11 25h18v-6q2 -45 -47 -45q-28 0 -37 15q-7 9 -8.5 34t-6.5 35.5t-38 10.5zM191 495h15q43 0 43 34q0 33 -34 33h-7q-11 0 -14 -2.5t-3 -12.5v-52z" />
    <glyph glyph-name="copyright" unicode="&#xa9;" horiz-adv-x="767" 
d="M377 683q142 0 243.5 -104t101.5 -246q0 -144 -102.5 -247t-246.5 -103t-247 103t-103 246q0 148 103.5 249.5t250.5 101.5zM369 633q-119 0 -202.5 -90t-83.5 -210q0 -122 84.5 -211t205.5 -89t205 89t84 211q0 124 -84.5 212t-208.5 88zM523 524l5 -152l-33 -4
q-33 122 -112 122q-91 0 -91 -154q0 -158 97 -158q88 0 109 110l39 -9q-29 -141 -165 -141q-84 0 -136.5 53t-52.5 136q0 86 54.5 142.5t140.5 56.5q49 0 92 -26l26 24h27z" />
    <glyph glyph-name="trademark" unicode="&#x2122;" horiz-adv-x="587" 
d="M215 667l5 -84h-20q-11 64 -46 64q-4 0 -6 -2v-7l-1 -166h33v-23l-123 -1v21l33 1q0 -1 0 168q0 6 -1 7.5t-5 1.5q-35 0 -47 -64h-20l5 84h193zM350 667l42 -117l40 117h100v-20h-30v-176l30 -1v-21h-117v21h30v159l-62 -180h-14l-64 183l1 -133q4 -30 32 -30v-20h-89v20
q17 -1 25 7q3 4 7 25v144l-30 1v21h99z" />
    <glyph glyph-name="Oslash" unicode="&#xb1;" horiz-adv-x="166" 
 />
    <glyph glyph-name="plusminus" unicode="&#xb5;" horiz-adv-x="414" 
d="M1 243l45 49v374h216v-18q-124 -35 -124 -238v-18l103 111v-55l-97 -102q8 -45 33 -104q9 -22 9 -52v-142h37h25q49 0 42 0q29 3 29 23q0 40 -21 84q-25 51 -58 51q2 0 -24 -11q-7 6 -7 14q0 17 34 70.5t51 53.5q59 0 75 -131q4 -35 4 -147q0 -41 -8.5 -48t-52.5 -7h-266
v109v33.5v34.5v67l-45 -47v46z" />
    <glyph glyph-name="product" unicode="&#xac;" horiz-adv-x="166" 
 />
    <glyph glyph-name="integral" unicode="&#xab;" horiz-adv-x="354" 
d="M229 294l67 -196h-75l-68 198l78 195l77 1zM103 296l62 -197l-71 1l-67 197l75 194h73z" />
    <glyph glyph-name="ordfeminine" unicode="&#xbb;" horiz-adv-x="364" 
d="M109 294l-67 -196h75l68 198l-78 195l-77 1zM235 296l-62 -197l71 1l67 197l-75 194h-73z" />
    <glyph glyph-name="ordmasculine" unicode="&#x2026;" horiz-adv-x="661" 
d="M605 74q0 -27 -14 -50q-17 -27 -46 -27q-27 0 -42 24q-12 21 -12 50q0 74 55 77q28 2 45 -26q14 -22 14 -48zM385 74q0 -27 -14 -50q-17 -27 -46 -27q-27 0 -42 24q-12 21 -12 50q0 74 55 77q28 2 45 -26q14 -22 14 -48zM165 74q0 -27 -14 -50q-17 -27 -46 -27
q-27 0 -42 24q-12 21 -12 50q0 74 55 77q28 2 45 -26q14 -22 14 -48z" />
    <glyph glyph-name="Omega" unicode="&#xa0;" horiz-adv-x="166" 
 />
    <glyph glyph-name="radical" unicode="&#x2013;" horiz-adv-x="402" 
d="M342 287h-339v75h339v-75z" />
    <glyph glyph-name="florin" unicode="&#x2014;" horiz-adv-x="752" 
d="M692 287h-689v75h689v-75z" />
    <glyph glyph-name="approxequal" unicode="&#x201c;" horiz-adv-x="423" 
d="M180 682l8 -26q-57 -28 -59 -95q57 -7 60 -65q1 -28 -18.5 -49t-47.5 -23q-36 -2 -58 27q-19 24 -20 61q-4 60 37 107q37 44 98 63zM360 682l8 -26q-57 -28 -59 -95q57 -7 60 -65q1 -28 -18.5 -49t-47.5 -23q-36 -2 -58 27q-19 24 -20 61q-4 60 37 107q37 44 98 63z" />
    <glyph glyph-name="Delta" unicode="&#x201d;" horiz-adv-x="415" 
d="M233 424l-8 26q57 28 59 95q-57 7 -60 65q-1 28 18.5 49t47.5 23q36 2 58 -27q19 -24 20 -61q4 -60 -37 -107q-37 -44 -98 -63zM53 424l-8 26q57 28 59 95q-57 7 -60 65q-1 28 18.5 49t47.5 23q36 2 58 -27q19 -24 20 -61q4 -60 -37 -107q-37 -44 -98 -63z" />
    <glyph glyph-name="guillemotleft" unicode="&#x2018;" horiz-adv-x="243" 
d="M180 682l8 -26q-57 -28 -59 -95q56 -7 59 -65q2 -28 -17.5 -49t-47.5 -23q-36 -2 -58 26q-19 25 -21 62q-3 60 37 107q38 44 99 63z" />
    <glyph glyph-name="guillemotright" unicode="&#x2019;" horiz-adv-x="235" 
d="M53 424l-8 26q57 28 59 95q-57 7 -60 65q-1 28 18.5 49t47.5 23q36 2 58 -27q19 -24 20 -61q4 -60 -37 -107q-37 -44 -98 -63z" />
    <glyph glyph-name="Atilde" unicode="&#xa4;" horiz-adv-x="166" 
 />
    <glyph glyph-name="Otilde" unicode="&#x2039;" horiz-adv-x="223" 
d="M103 296l62 -197l-71 1l-67 197l75 194h73z" />
    <glyph glyph-name="OE" unicode="&#x203a;" horiz-adv-x="230" 
d="M102 296l-63 -197l71 1l68 197l-76 194h-72z" />
    <glyph glyph-name="oe" unicode="&#x2021;" horiz-adv-x="398" 
d="M181 466q-27 0 -60.5 -18.5t-49.5 -18.5q-43 0 -43 49t43 49q17 0 50 -18.5t61 -18.5q-1 32 -22 73t-21 55q0 22 15.5 34.5t37.5 12.5q54 0 54 -47q0 -14 -21 -53.5t-22 -74.5q27 0 60.5 18.5t49.5 18.5q44 0 44 -49t-44 -49q-15 0 -49 18.5t-61 19.5q4 -82 54 -134
q-50 -52 -54 -139q28 1 61.5 19t48.5 18q44 0 44 -49t-44 -49q-15 0 -48.5 18t-61.5 20q1 -34 22 -74t21 -55q0 -46 -54 -46q-53 0 -53 46q0 15 21 54t22 75q-28 -2 -61.5 -20t-49.5 -18q-43 0 -43 49t43 49q16 0 49.5 -18.5t60.5 -18.5q-3 87 -54 139q51 52 54 133z" />
    <glyph glyph-name="endash" unicode="&#xb7;" horiz-adv-x="274" 
d="M218 333q0 -32 -25 -57t-59 -25q-30 0 -56.5 25.5t-26.5 56.5q0 36 26.5 59.5t58.5 23.5q35 0 58.5 -26t23.5 -57z" />
    <glyph glyph-name="emdash" unicode="&#x201a;" horiz-adv-x="242" 
d="M53 -106l-8 26q57 28 59 95q-57 7 -60 65q-1 28 18.5 49t47.5 23q36 2 58 -27q19 -24 20 -61q4 -60 -37 -107q-37 -44 -98 -63z" />
    <glyph glyph-name="quotedblleft" unicode="&#x201e;" horiz-adv-x="422" 
d="M233 -106l-8 26q57 28 59 95q-57 7 -60 65q-1 28 18.5 49t47.5 23q36 2 58 -27q19 -24 20 -61q4 -60 -37 -107q-37 -44 -98 -63zM53 -106l-8 26q57 28 59 95q-57 7 -60 65q-1 28 18.5 49t47.5 23q36 2 58 -27q19 -24 20 -61q4 -60 -37 -107q-37 -44 -98 -63z" />
    <glyph glyph-name="quotedblright" unicode="&#x2030;" horiz-adv-x="166" 
 />
    <glyph glyph-name="Egrave" unicode="&#xa6;" horiz-adv-x="166" 
 />
    <glyph glyph-name="apple" unicode="&#xad;" horiz-adv-x="166" 
 />
    <glyph glyph-name="afii10017" unicode="&#x410;" horiz-adv-x="378" 
d="M326 1h-141v29q0 82 6 99q2 7 16 30q9 15 9 34q0 8 -1 18q-38 -9 -75 -19q-43 -12 -72 -26q-1 -8 0 -165h-55q-1 66 -1 86q0 365 98 579h95q56 -91 92 -322q29 -188 29 -343zM209 322q0 39 -22 109q-27 83 -54 83q-29 0 -48 -99q-15 -77 -13 -125v-9q55 26 137 41z
M214 250v31q-26 -1 -72.5 -14t-71.5 -26l-1 -35q29 13 72 24q37 10 73 20z" />
    <glyph glyph-name="afii10019" unicode="&#x412;" horiz-adv-x="375" 
d="M329 113q0 -37 -24 -73q-27 -40 -63 -40h-229q-1 26 -1 235v430h100q72 1 100 1q112 0 112 -108q0 -83 -72 -133q-33 -23 -145 -66v-20q35 4 101 36q4 1 35 20q28 16 31 16q20 0 39 -32q16 -28 16 -51v-215zM258 553q0 54 -49 54q-48 0 -77 -78q-22 -60 -22 -120
q54 12 98 50q50 43 50 94zM245 126q0 53 -23 113q-28 74 -71 74q-13 0 -41 -11v-11q0 -21 21 -61.5t21 -50.5v-129h46q47 0 47 76z" />
    <glyph glyph-name="afii10020" unicode="&#x413;" horiz-adv-x="377" 
d="M287 578q0 20 -29 23h-42h-25h-37v-142q0 -30 -9 -52q-20 -47 -29.5 -80.5t-9.5 -70.5q0 -204 124 -238v-18h-216v489q-1 40 0 68v109h266q45 0 52 -7q5 -4 7 -19.5t2 -35.5q0 -36 -3.5 -73t-10.5 -75q-26 -135 -84 -135q-17 0 -50 42q-17 22 -25.5 30.5t-8.5 15.5t7 11
q27 -8 24 -8q33 0 67 71q31 63 31 98z" />
    <glyph glyph-name="afii10018" unicode="&#x411;" horiz-adv-x="363" 
d="M16 -2v670l248 1q5 -2 12 -4t17 -4q18 -17 18 -48q0 -40 -19 -90q-24 -56 -54 -80h-13q-1 3 -1 8q0 6 1 15t3 20t3.5 19.5t1.5 14.5q0 14 -4.5 26t-15.5 29q-6 10 -16.5 17t-22 11.5t-23 7t-18.5 2.5l-2 -114l1 -29q106 -68 155 -148.5t49 -168.5q0 -27 -6 -61
q-9 -41 -20.5 -55t-14.5 -16q-3 -4 -10 -8t-14.5 -7.5t-13.5 -5.5t-9 -2h-232zM126 66q11 -1 17.5 3.5t8.5 7.5q63 58 63 157q0 64 -21 103t-69 62q-4 -28 -8 -58t-7 -59t-4.5 -54.5t-1.5 -44.5q0 -27 6 -67q7 -46 16 -50z" />
    <glyph glyph-name="afii10022" unicode="&#x415;" horiz-adv-x="422" 
d="M265 477q0 3 0.5 5.5t0.5 5.5q0 21 -16.5 42t-40.5 38t-50.5 27.5t-46.5 10.5t-22 -7.5t-4 -15.5q1 -1 1 -18v-20t-1 -27q2 -17 8 -41.5t15 -56.5q13 7 38.5 16.5t51 18.5t45 15t21.5 7zM207 65l51 -1q14 -1 21 5.5t7 14.5q0 19 -5 47t-13.5 54.5t-21 45t-27.5 18.5
l-23 -10q-7 4 -7 12q0 7 10 24.5t23.5 36t27.5 33t22 14.5q20 0 39 -23t34 -64.5t24.5 -98.5t9.5 -125q0 -17 -1 -27t-7 -14.5t-18 -5.5t-34 -1h-221q-36 0 -51 1.5t-27 12.5v13t0.5 16t2.5 13.5t5 5.5q6 0 12 -1.5t14 -1.5q5 0 8 15.5t3 36.5q0 11 -1 20t-3 20.5t-5 27.5
t-7 41l-18 114q-12 109 -12 194q0 78 14 108t47 30h242q14 0 23.5 -14t9.5 -34l1 -150q-50 -10 -115 -30.5t-125 -49.5q1 -4 3.5 -9.5t6.5 -13.5q38 18 73.5 31t64.5 21t49.5 12t28.5 4q3 0 5.5 -1.5t4.5 -1.5v-26q-4 -4 -11 -8q-52 -14 -83.5 -22.5t-52 -15t-34 -13
t-28.5 -16.5q11 -27 22.5 -52.5t20.5 -47.5t15 -39t6 -26v-99z" />
    <glyph glyph-name="afii10047" unicode="&#x42d;" horiz-adv-x="370" 
d="M85 1q-12 0 -33 60q-15 43 -23 76q-17 72 -17 138q0 67 33 67q9 0 16 -6q-2 -59 12 -103q20 -62 69 -62q41 0 70 56q25 47 27 94q-143 56 -216 80q-8 7 -8 17q0 17 14 17q10 0 104.5 -35.5t111.5 -44.5q5 13 3 39q-152 55 -230 80v132q0 62 82 62q21 0 62.5 -1t62.5 -1
q67 0 85 -59q7 -25 7 -115q0 -198 -5 -256q-14 -163 -71 -235h-156v0zM94 496q107 -40 161 -60q-1 49 -1 98q-4 73 -33 73q-33 0 -80 -37t-47 -69v-5v0z" />
    <glyph glyph-name="afii10028" unicode="&#x41a;" horiz-adv-x="377" 
d="M323 -2h-101v43q1 34 1 56q0 133 -26 178q-5 7 -27.5 31.5t-26.5 24.5q-12 0 -23 -7t-11 -17q0 -15 14 -53q18 -45 20 -54q9 -38 9 -100q-1 -79 1 -101l-140 -2q3 50 2 126q-3 121 -3 126l1 394q0 9 11.5 16t20.5 7h139q48 0 48 -61q0 -17 -3.5 -36t-27.5 -59
q-27 -44 -41 -44t-16 19q53 79 53 107q0 23 -20 23q-19 0 -40 -35q-39 -64 -39 -190q0 -4 1.5 -11t1.5 -11h-1q0 -2 5 -2q1 0 18 12q93 69 122 139q9 23 13 82q3 55 10 64l13 1q27 1 35 -13q5 -9 5 -40q0 -99 -84 -190v-2q0 -2 3 -4q45 -28 62 -51q21 -30 21 -77v-289z" />
    <glyph glyph-name="afii10029" unicode="&#x41b;" horiz-adv-x="382" 
d="M18 162q0 8 6 90q17 212 86 419h125q27 -62 61 -197q9 -36 23 -139q15 -113 15 -162v-169h-160q67 87 67 223q0 71 -40 156q-47 99 -58 165q-2 4 -6 10h-10q-12 -15 -20 -55q-14 -79 -14 -165q0 -47 7 -95q14 -89 45 -89q8 0 14 11.5t6 18.5v68q0 3 -2.5 13t-2.5 14
q0 6 5.5 13t10.5 7q15 0 22 -44q5 -27 5 -46q0 -54 -23 -119q-32 -92 -87 -92q-45 0 -64 73q-11 43 -11 91z" />
    <glyph glyph-name="afii10030" unicode="&#x41c;" horiz-adv-x="503" 
d="M446 -1h-137v152q0 21 20 93.5t20 134.5q0 28 -3 53q-3 17 -15 46q-16 39 -30 39q-21 0 -63 -107q0 -2 8 -32q8 -34 10 -46q18 -102 18 -150q0 -43 -13 -104q-14 -66 -27.5 -72.5t-55.5 -6.5h-44q-36 12 -36 75q0 60 27 151t27 94q0 15 -27 99q-31 94 -50 94
q-15 0 -15 -15v-468q0 -27 -1 -30h-53v642q2 5 9 15.5t11 10.5q-11 -1 57 -1q59 0 67.5 -4t26.5 -51q11 -30 41 -121q23 58 78 169q4 7 71 7q-2 0 15 1t28 1q17 -1 25 -6q12 -7 13 -29q-1 36 -1 -38zM206 63q0 13 -31 160q-36 -106 -36 -158q0 -18 6.5 -23.5t25.5 -5.5
q18 0 23 3q12 5 12 24z" />
    <glyph glyph-name="afii10032" unicode="&#x41e;" horiz-adv-x="371" 
d="M321 250q0 -46 -21.5 -129.5t-44.5 -121.5h-179q-26 41 -45.5 106t-19.5 113l-1 362q0 88 85 88h138q88 0 88 -74v-344zM261 330q0 92 -29 173q-39 108 -113 108q-19 0 -33 -19t-14 -39q0 -86 3 -103.5t8 -52.5q7 -42 20 -66l36 -70q21 -43 27 -73q3 -18 10 -54
q8 -6 14 -6q14 0 32 27q14 22 19 41q20 69 20 134z" />
    <glyph glyph-name="afii10034" unicode="&#x420;" horiz-adv-x="363" 
d="M323 525q0 -159 -187 -282q22 -64 22 -78v-167h-139v668h227q4 0 19.5 -7t21.5 -14q3 -2 13 -14.5t17 -50.5q6 -32 6 -55zM207 451q0 89 -55 143q-5 5 -23 4q-9 -4 -16 -50q-6 -40 -6 -67q0 -76 17 -188q83 42 83 158z" />
    <glyph glyph-name="afii10035" unicode="&#x421;" horiz-adv-x="349" 
d="M301 259q0 -57 -18 -134q-20 -83 -47 -126h-149q-28 49 -52.5 135t-24.5 139v237q0 63 12 112q12 44 82 44h24q17 1 24 1q74 0 92 -5q51 -13 51 -64q0 -40 -36 -82q-29 -34 -70 -58q-35 -21 -48 -21q-12 0 -12 13q0 6 38 35.5t38 56.5t-35 50q-32 20 -61 20
q-38 0 -38 -56q0 -117 22 -226q34 -167 106 -167q57 0 57 92q0 16 -7 44t-7 32q0 14 15 14q20 0 33 -34q11 -28 11 -52z" />
    <glyph glyph-name="afii10036" unicode="&#x422;" horiz-adv-x="409" 
d="M370 600q0 -47 -18 -109q-21 -68 -50 -96h-12q-1 4 -1 10q0 14 4.5 41.5t4.5 40.5q0 34 -19 75q-23 47 -52 47q-13 0 -13 -8q0 -11 10 -45q12 -41 14 -50q22 -123 22 -245q0 -25 -5.5 -75t-5.5 -74q0 -36 11 -114h-150v70q-1 82 18 150q16 48 31 98.5t15 101.5
q0 41 -7 97q-9 75 -24 89q-42 -10 -42 -104q0 -19 17 -50.5t16 -49.5q-14 -3 -11 -3q-16 0 -42 28q-65 71 -65 180q0 40 19 52q14 10 55 10h236q9 -4 27 -10q17 -19 17 -57z" />
    <glyph glyph-name="afii10037" unicode="&#x423;" horiz-adv-x="346" 
d="M298 568q0 -146 -22 -270q-8 -95 -40 -176q-52 -133 -143 -133q-34 0 -41 4q-46 23 -46 111q0 22 10 58q12 44 26 44h17q5 -5 5 -13q0 -5 -2.5 -14.5t-2.5 -14.5q0 -33 37 -33q18 0 47 23.5t29 36.5q0 -1 -74 111q-40 61 -68 164q-27 98 -27 173q0 2 -2 12.5t-2 15.5h149
q-8 -55 -8 -114q0 -225 63 -315q16 14 28 92q11 69 11 122q0 40 -8 87q-12 64 -32 64q-3 0 -8.5 -4t-7.5 -4q-4 0 -7 1.5t-4 1.5v11q0 12 20 32q14 14 23 20q24 15 39 15q6 0 27 -9q14 -26 14 -99z" />
    <glyph glyph-name="afii10039" unicode="&#x425;" horiz-adv-x="374" 
d="M342 667q-19 -22 -67 -92q-51 -77 -51 -89q0 6 36 -101q60 -177 60 -261v-124h-133q-9 61 -9 60v101q0 13 3.5 37.5t3.5 36.5q0 69 -20 116h-2q-86 -185 -77 -351h-80v22q0 30 12 86q2 14 23 73q19 55 19 61q0 2 -16 38t-18 45q-15 63 -15 180q0 162 32 162h80
q15 0 42 -56q17 -36 33 -73q19 24 86 129h58zM140 428q0 17 -22 53q-25 40 -44 41q-20 -19 -20 -74q0 -30 9 -78q9 -59 23 -70q54 127 54 128z" />
    <glyph glyph-name="afii10021" unicode="&#x414;" horiz-adv-x="451" 
d="M281 1q-16 0 -29.5 0.5t-25.5 1.5q-24 -3 -56 -3q-14 0 -22 1t-25 1t-26.5 -4t-14 -11t-5.5 -15.5t-1 -17.5q0 -2 2.5 -6t5.5 -9t5.5 -9.5t2.5 -6.5q0 -3 -6.5 -11t-14.5 -8q-13 0 -25 14t-20.5 35t-12 45t0 45t15 35t34.5 14h5q2 -1 2.5 -1.5t2.5 -1t6.5 -1t15.5 -0.5
l-2 7q9 22 10.5 43.5t-2 43.5t-11.5 46.5t-18 52.5q-13 37 -19.5 69.5t-9.5 60t-3.5 50t-0.5 39.5q0 49 8.5 81.5t23.5 52.5t35 28.5t43 8.5l208 -1v-583q10 0 14 0.5t5 1t0.5 1t1.5 1.5h5q23 0 34.5 -14t15 -35t0 -45t-12 -45t-20.5 -35t-25 -14q-8 0 -14.5 8t-6.5 11
q0 2 2.5 6.5t5.5 9.5t5.5 9t2.5 6q0 9 -1 17.5t-5.5 15.5t-13.5 11t-26 4t-23 -1t-19 -1zM198 87h46q14 36 20 66t6.5 58.5t-3.5 58t-9 64.5q-19 66 -28 113.5t-9 92.5v22.5t1 52.5l-29 -1q-13 0 -24.5 -7.5t-20 -20t-13.5 -28.5t-5 -34q0 -49 7.5 -89.5t18 -76.5t20 -68.5
t13 -65t-1 -66t-23.5 -71.5h34z" />
    <glyph glyph-name="afii10024" unicode="&#x416;" horiz-adv-x="569" 
d="M335 205q9 -38 9 -100q-1 -40 -0.5 -67t1.5 -38h-160q1 11 2 36.5t0 65.5q0 62 9 100q1 5 7.5 18t12.5 36q4 14 6 27.5t4 27.5q-7 9 -15.5 15.5t-15.5 6.5q-2 0 -10 -8.5t-18 -19t-18 -19t-8 -9.5q-26 -46 -26 -178v-25t1 -31v-43h-101v289q0 47 21 77q16 22 62 51
q3 1 3 4v2q-84 91 -84 190q0 30 5 40q8 14 35 13l13 -1q7 -8 10 -64q5 -61 13 -82q6 -17 20 -38t32 -42.5t39.5 -40t44.5 -30.5q0 70 -17.5 139t-41.5 126v33h181l1 -22v-11q-29 -59 -41.5 -126.5t-10.5 -136.5q22 12 44 31t40.5 40.5t32 42.5t20.5 38q8 21 13 82
q3 56 10 64l13 1q27 1 35 -13q5 -10 5 -40q0 -99 -84 -190v-2q0 -3 3 -4q46 -29 62 -51q21 -30 21 -77v-289h-105v43q1 17 1 31v25q0 67 -4.5 111t-17.5 67q0 1 -8 9.5t-18 19t-18.5 19t-9.5 8.5q-7 0 -15 -6t-16 -14q2 -15 4.5 -29t6.5 -28q5 -23 12 -36t8 -18z" />
    <glyph glyph-name="afii10025" unicode="&#x417;" horiz-adv-x="371" 
d="M179 86q0 15 -5 35t-13 38t-18.5 30.5t-21.5 12.5q-21 0 -29 -18t-8 -54q0 -29 12 -43.5t44 -14.5h30.5t5.5 1q3 9 3 13zM134 366q-8 7 -14 15.5t-7 16.5l2 1.5t7 5t14 11t24 21.5q48 43 48 69q0 10 -9.5 22t-23 22.5t-28 17.5t-24.5 7q-40 0 -40 -41q0 -7 1.5 -20.5
t5.5 -24.5q0 -3 6.5 -9t6.5 -10q0 -3 -6.5 -11t-14.5 -8t-34 20q-14 12 -21 22t-9 17.5t-1.5 14.5t0.5 13v95q0 17 14 27t26 10h12.5t21 0.5t23 0.5h19.5q18 0 40 -6.5t43 -16.5t39 -22.5t28 -25.5q11 -14 11 -45q0 -19 -5.5 -35t-16.5 -32.5t-26.5 -34.5t-35.5 -41
q52 -33 79.5 -65.5t27.5 -57.5v-213q0 -35 -25 -56.5t-57 -21.5h-28q-13 0 -20 1t-9 0h-61q-34 0 -55.5 10.5t-29.5 28.5q-11 27 -11 119q0 52 4.5 87.5t14.5 57.5t26 32t39 10q9 0 14 -9.5t10 -18.5q19 -33 33.5 -61t24.5 -56t16 -57.5t9 -64.5q2 -2 5 -2q13 0 13 39
q0 29 -6 64.5t-18 70t-30 65.5t-42 52z" />
    <glyph glyph-name="afii10026" unicode="&#x418;" horiz-adv-x="415" 
d="M234 467q-8 -19 -8 -27q-11 -35 -24.5 -89.5t-28 -115t-28 -122t-24.5 -110.5l-96 -2l-4 369q0 149 26.5 224t74.5 75q33 0 50 -27q8 -14 15.5 -27.5t14.5 -27.5h2q34 79 45 79h104v-665h-135v145q0 11 5 31t15 56q9 33 14 62t5 56.5t-5.5 55.5t-17.5 60zM184 526
q-4 16 -9 31.5t-13 15.5q-7 0 -15 -8t-14.5 -22.5t-12 -33.5t-7.5 -41q-2 -15 -3 -31t-2 -43t-1 -70t1 -111z" />
    <glyph glyph-name="afii10031" unicode="&#x41d;" horiz-adv-x="449" 
d="M258 664h143v-190q-31 -81 -40 -116q-15 -55 -15 -121q0 -111 55 -205v-33h-143v351q-5 -1 -9 -3q-12 -4 -31 -9q-22 -6 -40 -13q-12 -4 -22 -8v-316h-143v190q31 81 40 116q15 55 15 121q0 111 -55 205v33h143v-236q25 11 49 20q22 9 53 15v199zM219 376q19 5 31 10
q3 1 8 3v35q-2 -1 -4 -1q-12 -3 -35 -10t-41 -13q-12 -5 -22 -9v-35q26 10 63 20z" />
    <glyph glyph-name="afii10027" unicode="&#x419;" horiz-adv-x="415" 
d="M146 839q0 -23 16.5 -43t37.5 -20q23 0 44 23.5t21 44.5h44q0 -66 -43 -108q-33 -34 -66 -34q-32 0 -63 34q-35 40 -35 103h44zM234 467q-8 -19 -8 -27q-11 -35 -24.5 -89.5t-28 -115t-28 -122t-24.5 -110.5l-96 -2l-4 369q0 149 26.5 224t74.5 75q33 0 50 -27
q8 -14 15.5 -27.5t14.5 -27.5h2q34 79 45 79h104v-665h-135v145q0 11 5 31t15 56q9 33 14 62t5 56.5t-5.5 55.5t-17.5 60zM184 526q-4 16 -9 31.5t-13 15.5q-7 0 -15 -8t-14.5 -22.5t-12 -33.5t-7.5 -41q-2 -15 -3 -31t-2 -43t-1 -70t1 -111z" />
    <glyph glyph-name="afii10033" unicode="&#x41f;" horiz-adv-x="398" 
d="M275 665q12 0 24 -9.5t21 -23t14.5 -29.5t5.5 -28v-575h-142v35q6 4 13 3t14 2t11.5 15t4.5 41q0 10 -0.5 49t-3 91.5t-8 110.5t-15 107.5t-23.5 81.5t-35 32q-20 0 -31.5 -21.5t-15.5 -56.5t-2 -78.5t8.5 -87.5t16 -84.5t20.5 -68.5v-169h-141v598q0 63 54 66h27.5h53.5
t65.5 -0.5t63.5 -0.5z" />
    <glyph glyph-name="afii10038" unicode="&#x424;" horiz-adv-x="634" 
d="M368 671q-3 -3 -6 -13t-6.5 -24.5t-6.5 -32t-6 -34.5h157q3 0 9.5 -2t14 -5.5t14.5 -7.5t10 -8l7 -7t15 -22t14.5 -39.5t6.5 -60.5q0 -87 -46.5 -161.5t-152.5 -140.5q0 -11 0.5 -21t0.5 -21v-70h-150q5 35 7.5 61t3.5 44q-65 24 -111.5 60t-76.5 78t-44.5 87t-14.5 87
q0 36 6.5 60.5t14.5 39.5t15 22l7 7q3 4 10 8t14.5 7.5t14 5.5t9.5 2h169q5 23 10.5 47t12.5 51zM340 493q-2 -20 -3 -38t-1 -34q0 -52 12 -101.5t27 -98.5q3 -12 6 -24.5t5 -25.5q43 25 56.5 65.5t13.5 98.5q0 97 -65 154q-5 4 -20 4h-31zM243 264q0 31 -1 59.5t-0.5 56.5
t2.5 56.5t8 59.5h-34q-8 0 -11 -1t-6 -3q-32 -29 -45.5 -67.5t-13.5 -86.5q0 -29 6 -56.5t19.5 -50t33.5 -38.5t49 -22q-2 26 -4.5 53t-2.5 40z" />
    <glyph glyph-name="afii10040" unicode="&#x426;" horiz-adv-x="424" 
d="M228 336q-16 4 -32 9t-28 15q-2 -11 -11.5 -36.5t-20.5 -58t-19.5 -67.5t-8.5 -64.5t12 -49t43 -20.5l29 -1q-1 34 -1 52.5v22.5q0 23 2.5 44.5t7 44.5t11.5 49.5t16 59.5zM104 586q0 29 -23 29t-23 -41q0 -8 3.5 -24t8 -32t9 -28.5t6.5 -13.5q19 64 19 110zM328 63
q9 2 15 2.5t13 0.5q22 0 33.5 -13t11.5 -51q0 -21 -5.5 -46.5t-15.5 -49.5t-22.5 -44t-26.5 -31h-13q-1 1 -1 8q0 6 1.5 15t3 19.5l3 21t1.5 17.5q0 10 -3.5 23.5t-11 26.5t-20 23.5t-30.5 14.5l-142 -1q-23 0 -43 8t-35 27.5t-23.5 52.5t-8.5 83q0 34 10 88.5t36 130.5
q12 34 12 39q-1 0 -8.5 16.5t-15.5 39t-15 45t-7 33.5q0 113 92 113q18 0 32.5 -12.5t25 -34t16.5 -51.5t6 -65q0 -56 -13 -115q33 -20 54 -20q4 19 5.5 39t1.5 40q0 78 -47 208h133z" />
    <glyph glyph-name="afii10041" unicode="&#x427;" horiz-adv-x="372" 
d="M140 48q31 9 48 32.5t24.5 57.5t8.5 77t0 93q-20 -7 -41 -15t-44 -19q-4 -2 -12 -7t-21 -13q-23 -14 -26 -14q-27 0 -48 37q-18 32 -17 53v336h120v-12q-9 -6 -21 -21q-3 -14 -3 -63q0 -42 9 -120q5 -35 25 -70q25 -43 54 -43q12 0 22 7q-5 41 -9 59q-4 11 -7.5 21
t-7.5 20q-11 33 -11 51v169h133v-598q0 -63 -54 -66q-11 -1 -37.5 -1h-85.5z" />
    <glyph glyph-name="afii10043" unicode="&#x429;" horiz-adv-x="671" 
d="M110 585q0 29 -23 29t-23 -41q0 -8 3.5 -24t8 -32t9 -28.5t6.5 -13.5q19 64 19 110zM582 63q18 3 32.5 3t24.5 -5.5t15 -19.5t5 -39q0 -21 -5.5 -46.5t-15.5 -49.5t-22.5 -44t-26.5 -31h-13q-1 1 -1 8q0 6 1.5 15t2.5 20l3 21q2 10 2 17q0 10 -3.5 23.5t-11 26.5
t-20 23.5t-30.5 14.5l-394 3q-23 0 -43 7.5t-35 26t-23.5 50.5t-8.5 82q0 34 10 88.5t36 130.5q12 34 12 39q-1 0 -8.5 16.5t-15.5 39t-15 45t-7 33.5q0 113 92 113q18 0 32.5 -12.5t25 -34t16.5 -51.5t6 -65q0 -56 -13 -115q9 -6 22 -16t27 -20t29 -18l2 -1q3 44 5 84
q3 56 3.5 96.5t0.5 50.5q0 29 -4.5 41t-11.5 15t-14 2t-13 3v35h160v-169q-9 -23 -17.5 -55.5t-15 -68.5t-10 -73t-3.5 -71q0 -27 2.5 -54.5t8.5 -49.5t15.5 -36t23.5 -14q21 0 35 34t23.5 86t14.5 113.5t7.5 117t3 96t0.5 50.5q0 29 -4.5 41t-11.5 15t-14 2t-13 3v35h142z
M245 306q-16 8 -30.5 17t-26 18t-17.5 14q-3 -8 -10.5 -28.5t-15 -47.5t-13 -57t-5.5 -57q0 -36 13.5 -62t49.5 -28q21 0 35 34t23 86q9 48 15 105q-9 2 -18 6z" />
    <glyph glyph-name="afii10042" unicode="&#x428;" horiz-adv-x="639" 
d="M129 1q-23 0 -43 7.5t-35 26t-23.5 50.5t-8.5 82q0 34 10 88.5t36 130.5q12 34 12 39q-1 0 -8.5 16.5t-15.5 39t-15 45t-7 33.5q0 113 92 113q18 0 32.5 -12.5t25 -34t16.5 -51.5t6 -65q0 -56 -13 -115q9 -5 21.5 -15.5t27.5 -21t30 -18.5h1q3 44 5 84q3 56 3.5 96.5
t0.5 50.5q0 29 -4.5 41t-11.5 15t-14 2t-13 3v35h160v-169q-9 -23 -17.5 -55.5t-15 -68.5t-10 -73t-3.5 -71q0 -27 2.5 -54.5t8.5 -49.5t15.5 -36t23.5 -14q21 0 35 34t23.5 86t15 113.5t8 117t3 96t0.5 50.5q0 29 -4.5 41t-11.5 15t-14 2t-13 3v35h142v-575q0 -12 -5.5 -28
t-14.5 -29.5t-21 -23t-24 -9.5q-29 0 -68.5 -0.5t-75.5 -0.5t-63.5 -0.5t-32.5 -0.5h-150zM249 304q-16 8 -30.5 17t-26 18t-17.5 14q-4 -9 -12.5 -33t-16.5 -54.5t-12.5 -63.5t-1.5 -61t17.5 -47t44.5 -21q21 0 35 34t23 86q9 48 15 105q-9 2 -18 6zM114 583q0 29 -23 29
t-23 -41q0 -8 3.5 -24t8 -32t9 -28.5t6.5 -13.5q19 64 19 110z" />
    <glyph glyph-name="afii10046" unicode="&#x42c;" horiz-adv-x="432" 
d="M154 665v-274q17 2 46.5 11t62.5 25q2 1 9 5.5t23 14.5q28 16 31 16q19 0 39 -32q16 -28 16 -51v-268q0 -37 -24 -73q-27 -40 -63 -40h-234q-1 13 -1 71.5v163.5l1 195q0 111 -51 205v11v22zM297 125q0 13 -1.5 35t-4.5 46t-7 47t-10 38q-14 37 -34 55.5t-42 18.5
q-11 0 -41 -11v-11q0 -22 21 -62q21 -41 21 -50v-182h54q44 0 44 76z" />
    <glyph glyph-name="afii10044" unicode="&#x42a;" horiz-adv-x="490" 
d="M110 0v71q0 42 4 78.5t14 71.5q15 48 31 98.5t15 101.5q0 18 -0.5 38.5t-2.5 40.5t-5 39t-9 33q-12 29 -28.5 27.5t-31.5 -19.5t-24.5 -44.5t-6.5 -45.5q2 -11 3.5 -21t6.5 -19v-19q-1 0 -5.5 -2t-7.5 -2q-9 0 -18.5 19t-17 46.5t-12 59t-4.5 55.5q0 58 18 58h255v-167
q0 -15 -22 -78q187 -123 187 -282q0 -34 -5.5 -56.5t-12 -36t-12 -19t-6.5 -5.5q-3 -3 -9 -7t-12.5 -7t-12 -5t-7.5 -2h-262zM333 212q0 116 -83 158q-8 -57 -12.5 -103.5t-4.5 -84.5q0 -24 2.5 -45t6.5 -37t9 -25.5t10 -9.5q18 0 31.5 16t22.5 39t13.5 48.5t4.5 43.5z" />
    <glyph glyph-name="afii10045" unicode="&#x42b;" horiz-adv-x="629" 
d="M154 665v-274q17 2 46.5 11t62.5 25q2 1 9 5.5t23 14.5q28 16 31 16q19 0 39 -32q16 -28 16 -51v-268q0 -37 -24 -73q-27 -40 -63 -40h-234q-1 13 -1 71.5v163.5l1 195q0 111 -51 205v11v22zM297 125q0 13 -1.5 35t-4.5 46t-7 47t-10 38q-14 37 -34 55.5t-42 18.5
q-11 0 -41 -11v-11q0 -22 21 -62q21 -41 21 -50v-182h54q44 0 44 76zM439 668h143v-194q-31 -81 -40 -116q-15 -55 -15 -121q0 -111 55 -205v-11v-22h-143v669z" />
    <glyph glyph-name="afii10048" unicode="&#x42e;" horiz-adv-x="598" 
d="M552 252q0 -46 -21.5 -129.5t-44.5 -121.5h-179q-26 41 -45.5 106t-19.5 113l-1 125q-9 -4 -23 -7q-18 -5 -33.5 -10.5t-28.5 -11.5v-315h-143v190q31 81 40 116q15 55 15 121q0 111 -55 205v33h143v-236q20 9 40 17t45 14v121q0 88 85 88h138q88 0 88 -74v-344zM492 332
q0 92 -29 173q-39 108 -113 108q-19 0 -33 -19t-14 -39q0 -86 3 -103.5t8 -52.5q7 -42 20 -66l36 -70q21 -43 27 -73q3 -18 10 -54q8 -6 14 -6q14 0 32 27q14 22 19 41q20 69 20 134zM219 376q6 2 11.5 3.5t10.5 3.5v36q-10 -3 -22 -6q-39 -12 -63 -22v-35q13 5 28.5 10
t34.5 10z" />
    <glyph glyph-name="afii10049" unicode="&#x42f;" horiz-adv-x="384" 
d="M25 28q1 48 1 68v210q0 18 6 43q3 13 21 32.5t29 19.5q114 -72 145 -72q2 0 8 25q-84 19 -143 74q-66 62 -66 142q0 38 25 67.5t62 29.5h220v-668h-135v213q0 14 21 73q0 5 -15 9.5t-23 4.5q-54 0 -54 -119v-20q1 -14 1 -21l-2 -134l-13 -6h-104zM136 515q0 -53 23 -80
q20 -21 74 -42h15q0 -7 0 64q0 48 -7 89q-12 67 -38 67q-67 0 -67 -98z" />
    <glyph glyph-name="afii10065" unicode="&#x430;" horiz-adv-x="342" 
d="M297 0l-109 -1q-20 25 -20 59q0 6 1 12q-16 -20 -33 -40q-26 -32 -32 -32q-86 0 -90 116q-3 73 7 104q6 17 28 38t35 53q0 -3 -34 42.5t-34 80.5q0 59 69 59q129 0 118 1q63 -5 63 -117l-1 -284q0 -20 13 -47q17 -37 19 -44zM138 454q-14 0 -23 -20q-7 -15 -7 -31
q0 -25 19.5 -57t41.5 -47v29v72q-5 54 -31 54zM167 195q0 45 0 38l-55 55q-9 -19 -21 -49q-6 -24 -6 -50q0 -78 55 -78q22 0 26 33q1 2 1 51z" />
    <glyph glyph-name="afii10067" unicode="&#x432;" horiz-adv-x="326" 
d="M269 109q0 -40 1 -34q-8 -54 -56 -69q-20 -7 -74 -7q-63 0 -73 2q-39 7 -46 40t-7 31v506q0 73 31 85q10 4 69 4q6 0 21 1t23 1q61 0 61 -50q0 -36 -40 -71l-70 -56q-7 -6 -8 -35q-1 -28 2 -34q91 74 90 74q20 0 45 -17q31 -22 31 -55v-316zM189 611q0 18 -22 18
q-24 0 -42 -41q-10 -30 -20 -61l18 6q25 12 45.5 36t20.5 42zM198 134q0 46 -16 124q-22 111 -57 111q-23 0 -23 -61q0 -63 14 -136q19 -102 53 -102q29 0 29 64z" />
    <glyph glyph-name="afii10068" unicode="&#x433;" horiz-adv-x="274" 
d="M232 375q0 -93 -29 -93q-13 0 -19 24q-6 20 -9.5 31.5t-4.5 13.5q-12 24 -37 24q-17 0 -33 -16q-3 -3 -3 -21q0 -27 16 -94q17 -70 17 -106l1 -139h-121l1 494h163q45 0 51 -32q7 -29 7 -86z" />
    <glyph glyph-name="afii10070" unicode="&#x435;" horiz-adv-x="317" 
d="M262 178q0 -34 -19 -93q-20 -62 -40 -85l-123 -1q-70 95 -70 330q0 164 61 164h116q57 0 71 -59q5 -20 5 -104q-112 -29 -174 -57q0 -32 21 -89q24 -67 48 -67q29 0 47 34q15 28 15 59q-1 13 -2 39q3 4 12 4q16 0 25 -31q7 -23 7 -44zM199 359q-8 29 -33 56
q-27 31 -54 31q-36 0 -36 -83q0 -24 3 -44q40 13 120 40z" />
    <glyph glyph-name="afii10072" unicode="&#x436;" horiz-adv-x="451" 
d="M149 1q1 6 1.5 16.5t0.5 27.5q0 7 -0.5 14.5t-0.5 16.5q0 23 1.5 36.5t5.5 27.5q3 18 6 35q2 14 4.5 27t2.5 18q0 18 -17 18q-18 0 -27.5 -16t-13.5 -40t-4 -53v-55v-74h-93v205q0 36 16 58q1 1 9 7t17 13t16.5 13t7.5 7v2q-32 34 -48 72.5t-16 76.5q0 20 11 30.5
t24.5 11.5t24.5 -7.5t10 -26.5q0 -11 -0.5 -30.5t5 -43t18.5 -48t40 -44.5q7 -5 13 -7t7 -2q2 66 -4 104t-10 46q-2 6 -13 24q-7 10 -10 20t-3 11l43 1h116v-9q0 -3 -13 -22q-11 -18 -13 -24q-4 -8 -10 -46t-4 -104q1 0 8 2t14 7q27 20 40 44.5t18.5 48t5 43t-0.5 30.5
q-1 18 10 26.5t24.5 7.5t24.5 -11.5t11 -30.5q0 -38 -16 -76t-48 -72v-2q0 -1 7.5 -7t16.5 -13.5t17 -13.5t9 -7q16 -22 16 -58v-205h-92v74q0 26 -0.5 55t-4.5 53t-13.5 40t-27.5 16q-16 0 -16 -18q0 -5 2 -18t5 -27q4 -17 8 -35q4 -14 5.5 -27.5t1.5 -36.5
q0 -9 -0.5 -16.5t-0.5 -14.5q0 -17 0.5 -27.5t1.5 -16.5z" />
    <glyph glyph-name="afii10066" unicode="&#x431;" horiz-adv-x="310" 
d="M183 497q19 0 45 -17q32 -23 32 -55v-297q-6 -73 -52 -128h-133q-35 40 -47 83q0 1 -3 19t-8 54q-3 133 1 220t12 141.5t18.5 83.5t20.5 47q18 30 46 35t55 -8.5t46.5 -43t19.5 -66.5q0 -27 -22 -27q-5 0 -9.5 5t-9.5 11t-11.5 11t-14.5 6t-17.5 1t-19 -3t-18.5 -11.5
t-16 -25.5q-8 -22 -12 -48t-6 -52q19 13 38 25t33.5 21t23 14zM189 313q-6 28 -16.5 40t-22.5 15.5t-24 2t-21 -1.5l-26 -10q1 -53 8 -97t18 -75.5t24.5 -49t26.5 -17.5q43 0 43 100q0 23 -2.5 47t-7.5 46z" />
    <glyph glyph-name="afii10080" unicode="&#x43e;" horiz-adv-x="312" 
d="M258 425v-297q-6 -72 -52 -128h-136q-35 39 -47 83q0 1 -11 73v260q0 31 18.5 53t51.5 22h106q67 1 70 -66zM197 220q0 46 -18 111q-26 98 -72 98q-15 0 -25 -30q-7 -23 -7 -43q0 -62 14 -131q22 -105 65 -105t43 100z" />
    <glyph glyph-name="afii10081" unicode="&#x43f;" horiz-adv-x="332" 
d="M275 403l-1 -402q-14 0 -46.5 -1t-48.5 -1v278q0 20 -10 47q-14 39 -36 39q-7 0 -19 -7.5t-14 -13.5q1 2 1 -30q0 -35 13 -88t13 -67v-157l-110 -1v491h102q-5 -22 -15 -68v-12q88 87 90 87q19 0 47 -23t30 -41q1 -9 4 -30z" />
    <glyph glyph-name="afii10082" unicode="&#x440;" horiz-adv-x="317" 
d="M262 131q0 -24 -12.5 -58.5t-27.5 -47.5q-18 -16 -46 -21l-46 -4v-162q-57 -1 -116 0v653l97 2q-3 -11 -8 -31.5t-8 -31.5l2 -12q16 19 50 52q1 1 18 20q7 7 19 7q78 0 78 -94v-272zM183 152q0 55 -9 112q-16 102 -53 102q-26 0 -26 -33q0 -73 33 -276h20q35 0 35 95z
" />
    <glyph glyph-name="afii10083" unicode="&#x441;" horiz-adv-x="300" 
d="M251 152q0 -36 -21 -89q-25 -64 -53 -64h-59q-67 0 -96 125q-18 78 -18 180q0 188 70 188h78q96 0 96 -69q0 -36 -33 -81q-36 -47 -71 -47q2 0 -14 3v15q38 23 38 50q0 25 -22 52.5t-46 27.5q-32 0 -31 -46l1 -19q4 -136 59 -235q16 -29 34 -29q22 0 35 26q11 21 11 46
q0 22 -4 38q3 8 11 8q18 0 28 -33q7 -24 7 -47z" />
    <glyph glyph-name="afii10085" unicode="&#x443;" horiz-adv-x="298" 
d="M250 354q0 -125 -18 -251q-24 -163 -70 -236q-6 -10 -26 -18t-34 -8q-3 0 -9.5 2t-10.5 2q-62 0 -62 119q0 35 22 35q7 0 15 -20t23 -20q13 0 30.5 17.5t17.5 30.5q-121 213 -121 485h121q0 -20 -6.5 -58.5t-6.5 -56.5v-87q0 -91 55 -180q11 32 20 142q0 4 2 18
q1 11 1 18v91q0 27 -11 60q-2 4 -13 21t-11 20q0 -3 3 11h83z" />
    <glyph glyph-name="afii10087" unicode="&#x445;" horiz-adv-x="320" 
d="M272 14q0 -8 -3 -15h-113v51.5v36.5v84q0 8 -7.5 37t-13.5 38q-2 0 -5 -5q-47 -125 -45 -242h-72v25q0 58 47 178t47 110q0 14 -20 45q-18 28 -27 35q-12 -4 -12 -18q0 -19 11 -52q-4 -3 -11 -3q-33 0 -33 92q0 61 17 81h76q14 0 35 -42q12 -24 23 -48q4 0 5 2
q5 11 30 45q31 43 44 43q19 0 19 -25q0 -8 -37.5 -61.5t-37.5 -55.5q0 3 17 -38q25 -56 45 -147q21 -94 21 -151z" />
    <glyph glyph-name="afii10069" unicode="&#x434;" horiz-adv-x="351" 
d="M69 238q10 63 25 126t36 127h86q23 -36 53 -184q14 -70 20.5 -114.5t6.5 -72.5v-64h11q21 0 30 -16t9 -38q0 -15 -4 -32.5t-10 -32.5t-14 -24.5t-17 -9.5q-7 0 -11.5 6t-4.5 8q0 4 5.5 13t6.5 12q6 14 -12 24t-48 14.5t-65.5 4.5t-65 -5t-46.5 -14t-9 -23q2 -3 7 -12.5
t5 -12.5q0 -2 -5 -8t-11 -6q-9 0 -17 9.5t-14.5 24.5t-10 32.5t-3.5 32.5q0 22 9 38t30 16h4l2.5 -2.5t5.5 -0.5v51q0 16 4 47t12 86zM118 203q0 -30 4 -56.5t10.5 -46t15.5 -31t18 -11.5h5l7.5 7.5t8 15.5t6 32.5t2.5 59.5q0 39 -2.5 65t-8 44t-13.5 31t-18 27l-9 3
q-4 -5 -8.5 -20.5t-8.5 -35.5t-6.5 -42.5t-2.5 -41.5z" />
    <glyph glyph-name="afii10076" unicode="&#x43a;" horiz-adv-x="307" 
d="M106 307l14 9q27 20 41.5 41.5t21.5 41t8 36t1 27.5q-1 18 8.5 26.5t21 7.5t21.5 -11.5t10 -30.5q0 -38 -16 -76t-48 -72v-2q0 -1 7.5 -7t16.5 -13.5t17 -13.5t9 -7q16 -22 16 -58v-205h-77v74q0 34 -2 56.5t-6.5 38t-12.5 26.5t-20 24q-19 19 -20 19q-9 0 -17.5 -5
t-8.5 -13q0 -5 5 -18t11 -27q7 -17 16 -35q4 -14 5.5 -27.5t1.5 -36.5q0 -9 -0.5 -16.5t-0.5 -14.5q0 -17 0.5 -27.5t1.5 -16.5l-117 -2q1 14 1 29.5v33.5q0 65 -1 88.5t-1 25.5l-2 316h139v-9q0 -3 -13 -22q-11 -18 -13 -24q-2 -4 -5.5 -12.5t-6.5 -23.5t-5 -38t-1 -56z
" />
    <glyph glyph-name="afii10073" unicode="&#x437;" horiz-adv-x="305" 
d="M85 107q15 -15 34 -15q24 0 39.5 23t15.5 62q0 21 -6 40t-16.5 33t-25 22.5t-32.5 8.5q-3 0 -10.5 -0.5t-10.5 -0.5l-10 6q2 2 52 40q42 30 42 49q0 7 -6.5 14.5t-16 13.5t-20.5 10t-19 4q-17 0 -21 -7.5t-4 -22.5q0 -10 5 -23q1 -2 8 -8t7 -8q0 -7 -9 -10t-17 -3
q-9 0 -17 6t-14 15.5t-9 20.5t-3 20q0 39 23 68t59 29q16 0 35.5 -4.5t37.5 -12t32.5 -16.5t22.5 -18q9 -12 9 -33q0 -53 -74 -89q33 -12 53.5 -29.5t32 -39t15 -45.5t3.5 -50q0 -81 -63 -154h-120q-5 0 -13 7.5t-17 17.5t-16.5 20t-10.5 15q-13 22 -16.5 52t1 57.5t18 46.5
t34.5 19q1 0 6 -4.5t11 -10.5l12.5 -12.5t11.5 -10.5q31 -31 31 -38q0 -3 -3.5 -8.5t-3.5 -6.5q-4 1 -13 4t-13 3q-6 0 -12.5 -4t-10.5 -10.5t-4 -15t6 -17.5z" />
    <glyph glyph-name="afii10074" unicode="&#x438;" horiz-adv-x="318" 
d="M14 -1v492h114l-24 -253l76 135q1 7 1 13.5v12.5q0 23 -3 46t-8 46h98v-491l-108 2q0 7 -0.5 27.5t-0.5 45.5t0.5 49t0.5 38q2 22 9 85l-73 -120l1 -126z" />
    <glyph glyph-name="afii10075" unicode="&#x439;" horiz-adv-x="318" 
d="M14 -1v492h114l-24 -253l76 135q1 7 1 13.5v12.5q0 23 -3 46t-8 46h98v-491l-108 2v160q1 21 9 85l-73 -120l1 -126zM96 687q0 -19 15.5 -38.5t37.5 -19.5q21 0 41 20q10 11 15.5 19.5t5.5 17.5l42 2q0 -28 -10.5 -55.5t-30.5 -45.5q-32 -29 -63 -29q-30 0 -61 29
q-17 17 -25.5 46t-8.5 55z" />
    <glyph glyph-name="afii10077" unicode="&#x43b;" horiz-adv-x="322" 
d="M81 123q-2 -5 0 -123h-65q-1 25 -1 41v23q0 137 20 243t60 187h78q46 -67 76 -241q24 -140 24 -253h-145v22q0 62 4 74q1 2 10.5 8t14.5 14q10 15 11.5 42t-2.5 56t-12 57t-15 46q-20 47 -30 41t-19 -53q-3 -15 -5 -38t-3.5 -49.5t-2 -52t1.5 -44.5z" />
    <glyph glyph-name="afii10078" unicode="&#x43c;" horiz-adv-x="495" 
d="M439 -1h-125v113q0 16 18 70t18 98q0 11 -0.5 20.5t-1.5 19.5q-2 11 -14 34q-15 29 -27 29q-10 0 -24 -26t-33 -66q0 -3 7 -24q7 -25 9 -35q8 -38 12 -58.5t4 -38.5q0 -32 -12 -77q-12 -50 -25 -54q-6 -2 -23 -3.5t-36 -1.5h-40q-33 9 -33 56q0 44 24 112q25 66 25 69
q0 11 -24 74q-28 70 -45 70q-14 0 -14 -12v-347q0 -21 -1 -22h-66v477q2 4 8.5 11.5t9.5 7.5h70q26 0 46 -0.5t24 -2.5q7 -3 24 -39q5 -11 14 -33.5t23 -56.5q11 22 28.5 53t42.5 73q4 6 65 6q-1 0 3 0t11 0.5t14 0.5h12q16 -2 22 -4q11 -6 12 -22q-1 14 -1 7v-35zM211 63
q0 4 -6 22.5t-17 68.5q-14 -36 -20.5 -54t-6.5 -36q0 -11 4.5 -15t19.5 -4q12 0 18 2q8 5 8 16z" />
    <glyph glyph-name="afii10079" unicode="&#x43d;" horiz-adv-x="318" 
d="M181 91q0 2 -1 17.5t-2.5 36t-3.5 42t-3 36.5l-69 -1l26 -223h-114v492l83 -2l1 -194l65 -1q-3 22 -3 34v160l108 2v-491h-98q5 23 8 46t3 46z" />
    <glyph glyph-name="afii10084" unicode="&#x442;" horiz-adv-x="344" 
d="M201 -1h-118l1 139l31 128l3 95q0 18 -3 21q-8 8 -6 12t-6 4q-26 0 -38 -24q-1 -2 -4.5 -13.5t-9.5 -31.5q-6 -24 -19 -24q-29 0 -29 93q0 28 1.5 38.5t5.5 24.5q6 32 51 32l190 -1q46 0 52 -32q4 -14 5.5 -24.5t1.5 -38.5q0 -93 -29 -93q-13 0 -19 24q-6 20 -9.5 31.5
t-4.5 13.5q-12 24 -37 24q-8 0 -5 -4t-5 -12v-382z" />
    <glyph glyph-name="afii10086" unicode="&#x444;" horiz-adv-x="468" 
d="M176 279q0 21 -0.5 34.5t-1.5 18.5q-6 40 -32 40q-30 0 -48 -91q-11 -64 -11 -96q0 -122 51 -122q12 0 22 7q20 66 20 209zM257 -167h-111v124q0 3 6 38q-5 1 -40 1q-103 0 -103 140l-1 217q2 8 4 19.5t4 26.5q2 51 35 77q35 27 64 20q19 -26 60 -72q1 1 1 10
q0 6 -3 25.5t-7 42t-8 43t-7 29.5q1 1 12 1.5t29 0.5t40 -0.5t45 -0.5l-20 -149q20 23 35 38.5t25 28.5q29 7 64 -20q33 -26 35 -77q2 -15 4 -26.5t4 -19.5l-1 -212q0 -140 -103 -140q-8 0 -18.5 0.5t-19.5 1.5t-16 1h-9v-168zM256 281q0 -143 20 -209q10 -7 22 -7
q51 0 51 122q0 17 -3 38.5t-8 52.5q-18 91 -48 91q-13 0 -21 -7.5t-11 -27.5q-1 -5 -1.5 -18.5t-0.5 -34.5z" />
    <glyph glyph-name="afii10088" unicode="&#x446;" horiz-adv-x="318" 
d="M6 136v355h114l-32 -337q-3 -29 7 -59q14 -38 38 -38q19 0 19 23q-1 27 0 82q1 12 4.5 41.5t8.5 77.5q4 37 6 66t2 52t-3 46t-8 46h98v-433q20 0 30.5 -10.5t10.5 -42.5q0 -17 -5.5 -36.5t-15 -38t-21.5 -34t-25 -24.5h-13q-1 1 -1 7q0 7 4 26t4 31q0 13 -10.5 33.5
t-37.5 30.5h-88q-86 0 -86 136z" />
    <glyph glyph-name="afii10089" unicode="&#x447;" horiz-adv-x="318" 
d="M122 37q25 6 38.5 19t20 33t7 48t-0.5 64q-16 -5 -32.5 -5t-35.5 -8q-3 -2 -7.5 -5.5t-14.5 -9.5q-19 -10 -21 -10q-11 0 -24.5 6.5t-21.5 20.5q-15 23 -14 39v259h104v-9q-4 -2 -8 -6l-9 -9q-1 -5 -1.5 -16.5t-0.5 -29.5q0 -16 1.5 -31.5t5.5 -44.5q2 -13 5 -25.5
t11 -25.5q19 -31 43 -31q10 0 18 5q-2 15 -4 25.5t-4 17.5q-3 8 -5.5 15.5t-6.5 14.5q-8 26 -8 37v112h113v-437q0 -47 -43 -48q-9 -1 -33 -1h-72v36z" />
    <glyph glyph-name="afii10090" unicode="&#x448;" horiz-adv-x="480" 
d="M101 1q-86 0 -86 136v355h114l-32 -337q-3 -29 7 -59q14 -38 38 -38q19 0 19 23q-1 27 0 82q1 12 4.5 41.5t8.5 77.5q4 37 6 66t2 52t-3 46t-8 46h114l-32 -337q-3 -29 7 -59q14 -38 38 -38q19 0 19 23q-1 27 0 82q1 12 4.5 41.5t8.5 77.5q4 37 6 66t2 52t-3 46t-8 46h98
v-491h-324z" />
    <glyph glyph-name="afii10091" unicode="&#x449;" horiz-adv-x="490" 
d="M424 58q20 0 34.5 -10.5t14.5 -42.5q0 -17 -5.5 -36.5t-15 -38t-21.5 -34t-25 -24.5h-13q-1 1 -1 7q0 7 4 26t4 31q0 13 -10.5 33.5t-37.5 30.5l-251 1q-86 0 -86 136v355h114l-32 -337q-3 -29 7 -59q14 -38 38 -38q19 0 19 23q-1 27 0 82q1 12 4.5 41.5t8.5 77.5
q4 37 6 66t2 52t-3 46t-8 46h114l-32 -337q-3 -29 7 -59q14 -38 38 -38q19 0 19 23q-1 27 0 82q1 12 4.5 41.5t8.5 77.5q4 37 6 66t2 52t-3 46t-8 46h98z" />
    <glyph glyph-name="afii10094" unicode="&#x44c;" horiz-adv-x="315" 
d="M114 205q0 -63 8.5 -99.5t40.5 -36.5q19 0 24 10t5 33q0 28 -2 53t-7 43.5t-13 29t-21 10.5q-16 0 -25.5 -10.5t-9.5 -32.5zM139 355q0 -20 8 -52q2 4 7.5 13t12.5 18t14.5 15.5t12.5 6.5q14 0 28.5 -9t26 -23t19 -30.5t7.5 -30.5v-198q0 -36 -16 -50.5t-53 -14.5l-188 1
v202q0 1 4 15.5t8.5 35.5t8.5 47t4 50q0 31 -0.5 51t-3 34t-8 23.5t-15.5 20.5v13h122z" />
    <glyph glyph-name="afii10092" unicode="&#x44a;" horiz-adv-x="385" 
d="M65 0v52q0 32 3.5 59t11.5 53q13 36 26 73t13 76q0 26 -2.5 48.5t-12.5 43.5t-20.5 23t-19 -7.5t-12.5 -26t-1 -31.5q2 -17 8 -29v-14q-1 0 -4.5 -1.5t-6.5 -1.5q-8 0 -15.5 14t-13.5 34.5t-10 43.5t-4 41q0 44 15 44h200v-125q0 -11 -18 -57q155 -92 155 -210
q0 -25 -4.5 -41.5t-10 -26.5t-10 -14t-5.5 -4q-2 -3 -7.5 -6t-11 -5t-10 -3.5t-5.5 -1.5h-228zM252 164q0 22 -6.5 38t-15.5 26t-19.5 14.5t-18.5 2.5q-3 -21 -5.5 -34t-5 -23.5t-3.5 -20.5t-1 -24q0 -36 7.5 -53.5t16.5 -17.5q14 0 24 9t16 23t8.5 30t2.5 30z" />
    <glyph glyph-name="afii10093" unicode="&#x44b;" horiz-adv-x="471" 
d="M114 205q0 -63 8.5 -99.5t40.5 -36.5q19 0 24 10t5 33q0 28 -2 53t-7 43.5t-13 29t-21 10.5q-16 0 -25.5 -10.5t-9.5 -32.5zM139 355q0 -20 8 -52q2 4 7.5 13t12.5 18t14.5 15.5t12.5 6.5q14 0 28.5 -9t26 -23t19 -30.5t7.5 -30.5v-198q0 -36 -16 -50.5t-53 -14.5l-188 1
v202q0 1 4 15.5t8.5 35.5t8.5 47t4 50q0 31 -0.5 51t-3 34t-8 23.5t-15.5 20.5v13h122zM315 492h111v-203q0 -6 -14.5 -51t-14.5 -97q0 -47 2 -64q7 -41 30 -65v-13h-114v493z" />
    <glyph glyph-name="afii10095" unicode="&#x44d;" horiz-adv-x="300" 
d="M188 490q70 0 70 -188q0 -102 -18 -180q-29 -125 -96 -125h-59q-28 0 -53 64q-21 52 -21 89q0 25 7 47q10 33 28 33q8 0 11 -8q-4 -15 -4 -38q0 -24 11 -46q14 -26 35 -26q17 0 34 29q11 19 16.5 35t12.5 40q-47 23 -82 38t-59 24q-2 2 -0.5 9.5t1.5 11.5q0 14 9 14
q4 0 68 -28q31 -13 49.5 -21t23.5 -13q3 13 2 30q-50 22 -87 37t-62 25v101q0 48 53 48h16.5t23.5 -1q7 0 17 -0.5t20.5 -0.5h19.5h13zM78 367q35 -16 61 -28t43 -20q-1 19 -3 35t-2 35q-2 29 -6.5 40t-14.5 11q-21 0 -52 -28q-15 -15 -22.5 -24.5t-7.5 -21.5v-4z" />
    <glyph glyph-name="afii10096" unicode="&#x44e;" horiz-adv-x="449" 
d="M161 428q2 35 19 50.5t51 15.5h106q33 0 51.5 -22t18.5 -53v-260q-5 -36 -8 -54t-3 -19q-12 -43 -47 -83h-136q-46 55 -52 128v92h-55l26 -224h-114v490h84v-195h59v134v0zM222 223q0 -100 43 -100q17 0 31.5 20t25 53t16.5 75.5t6 87.5q0 12 -2.5 25t-7 23.5t-10.5 17.5
t-12 7q-18 0 -34 -19.5t-28.5 -50t-20 -67.5t-7.5 -72z" />
    <glyph glyph-name="afii10097" unicode="&#x44f;" horiz-adv-x="339" 
d="M283 -1h-110v33.5t1 45.5t6.5 46t5.5 33q0 11 4 23t4 23q0 6 -8 9t-18 3q-9 0 -18 -6t-15.5 -15t-11 -19.5t-4.5 -19.5l-1 -156h-106v50q16 13 19 48v18v40q0 62 14 85q6 6 21 17q18 13 18 17q-8 10 -19 21t-21 25.5t-16 34.5t-4 49q2 31 22.5 54t50.5 33q4 1 19.5 1.5
t36.5 1t44 0t42.5 -0.5t31.5 -0.5l12 -0.5v-493zM125 364q0 -13 7 -30t18 -33t24.5 -28.5t26.5 -15.5q3 12 5.5 29t4.5 36t3 39t2 37q-12 13 -27.5 15t-29.5 -3.5t-24 -18t-10 -27.5z" />
    <glyph glyph-name="afii10023" unicode="&#x401;" horiz-adv-x="422" 
d="M265 477q0 3 0.5 5.5t0.5 5.5q0 21 -16.5 42t-40.5 38t-50.5 27.5t-46.5 10.5t-22 -7.5t-4 -15.5q1 -1 1 -18v-20t-1 -27q2 -17 8 -41.5t15 -56.5q13 7 38.5 16.5t51 18.5t45 15t21.5 7zM207 65l51 -1q14 -1 21 5.5t7 14.5q0 19 -5 47t-13.5 54.5t-21 45t-27.5 18.5
l-23 -10q-7 4 -7 12q0 7 10 24.5t23.5 36t27.5 33t22 14.5q20 0 39 -23t34 -64.5t24.5 -98.5t9.5 -125q0 -17 -1 -27t-7 -14.5t-18 -5.5t-34 -1h-221q-36 0 -51 1.5t-27 12.5v13t0.5 16t2.5 13.5t5 5.5q6 0 12 -1.5t14 -1.5q5 0 8 15.5t3 36.5q0 11 -1 20t-3 20.5t-5 27.5
t-7 41l-18 114q-12 109 -12 194q0 78 14 108t47 30h242q14 0 23.5 -14t9.5 -34l1 -150q-50 -10 -115 -30.5t-125 -49.5q1 -4 3.5 -9.5t6.5 -13.5q38 18 73.5 31t64.5 21t49.5 12t28.5 4q3 0 5.5 -1.5t4.5 -1.5v-26q-4 -4 -11 -8q-52 -14 -83.5 -22.5t-52 -15t-34 -13
t-28.5 -16.5q11 -27 22.5 -52.5t20.5 -47.5t15 -39t6 -26v-99zM224 757q0 19 14 32.5t33 13.5q20 0 33.5 -13.5t13.5 -32.5t-13.5 -32.5t-33.5 -13.5q-19 0 -33 13.5t-14 32.5zM78 757q0 19 13.5 32.5t33.5 13.5q19 0 33 -13.5t14 -32.5t-14 -32.5t-33 -13.5
q-20 0 -33.5 13.5t-13.5 32.5z" />
    <glyph glyph-name="afii10071" unicode="&#x451;" horiz-adv-x="316" 
d="M262 176q0 -34 -19 -92q-20 -61 -40 -84h-123q-70 94 -70 329q0 163 61 163h116q57 0 71 -59q5 -21 5 -105q-112 -29 -174 -57q0 -32 21 -88q24 -66 48 -66q29 0 47 33q15 27 15 58q-1 13 -2 39q3 4 12 4q16 0 25 -31q7 -23 7 -44zM199 357q-8 29 -33 56q-27 31 -54 31
q-36 0 -36 -83q0 -24 3 -44q40 13 120 40zM158 576q0 16 12 27.5t29 11.5t28.5 -11.5t11.5 -27.5t-11.5 -27.5t-28.5 -11.5t-29 11.5t-12 27.5zM33 576q0 16 11.5 27.5t28.5 11.5t29 -11.5t12 -27.5t-12 -27.5t-29 -11.5t-28.5 11.5t-11.5 27.5z" />
    <glyph glyph-name="afii61352" unicode="&#x2116;" horiz-adv-x="690" 
d="M319 373l-3 -164l-16 -211h-93q-8 45 -17 86.5t-17 80.5q-21 94 -39.5 164.5t-34.5 121.5q0 8 -8 27q-7 0 -15 -11q-1 -7 -1 -29.5v-61.5l2 -378q-5 0 -13 0.5t-17 0.5t-17.5 0.5t-14.5 0.5v667h113q12 0 47 -77h2q8 14 15.5 27.5t15.5 27.5q16 27 53 27q58 0 58 -299z
M616 397q0 -24 -15 -54t-40 -49l-108 -2q-28 0 -49 41q-18 34 -18 65v208q0 58 57 64h118q24 0 40 -18.5t16 -42.5zM645 173h-277v3q-2 -2 -3 -2v78h279v-4q1 -1 1 -2.5v-8.5t-0.5 -20.5t-0.5 -38.5zM556 493q0 17 -7 37.5t-18 38t-24.5 29t-26.5 10.5t-19.5 -13t-8 -29.5
t0.5 -37.5t5 -36q16 -85 59 -85q39 0 39 86zM270 371q-2 20 -4 45.5t-6 54.5q-11 89 -40 89q-16 0 -23 -31l71 -304z" />
    <glyph glyph-name="afii10062" unicode="&#x40e;" horiz-adv-x="346" 
d="M298 568q0 -146 -22 -270q-8 -95 -40 -176q-52 -133 -143 -133q-34 0 -41 4q-46 23 -46 111q0 22 10 58q12 44 26 44h17q5 -5 5 -13q0 -5 -2.5 -14.5t-2.5 -14.5q0 -33 37 -33q18 0 47 23.5t29 36.5q0 -1 -74 111q-40 61 -68 164q-27 98 -27 173q0 2 -2 12.5t-2 15.5h149
q-8 -55 -8 -114q0 -225 63 -315q16 14 28 92q11 69 11 122q0 40 -8 87q-12 64 -32 64q-3 0 -8.5 -4t-7.5 -4q-4 0 -7 1.5t-4 1.5v11q0 12 20 32q14 14 23 20q24 15 39 15q6 0 27 -9q14 -26 14 -99zM114 848q0 -23 16.5 -43t37.5 -20q23 0 44 23.5t21 44.5h44q0 -66 -43 -108
q-33 -34 -66 -34q-32 0 -63 34q-35 40 -35 103h44z" />
    <glyph glyph-name="afii10110" unicode="&#x45e;" horiz-adv-x="298" 
d="M250 354q0 -125 -18 -251q-24 -163 -70 -236q-6 -10 -26 -18t-34 -8q-3 0 -9.5 2t-10.5 2q-62 0 -62 119q0 35 22 35q7 0 15 -20t23 -20q13 0 30.5 17.5t17.5 30.5q-121 213 -121 485h121q0 -20 -6.5 -58.5t-6.5 -56.5v-87q0 -91 55 -180q11 32 20 142q0 4 2 18
q1 11 1 18v91q0 27 -11 60q-2 4 -13 21t-11 20q0 -3 3 11h83zM87 687q0 -19 15.5 -38.5t37.5 -19.5q21 0 41 20q10 11 15.5 19.5t5.5 17.5l42 2q0 -28 -10.5 -55.5t-30.5 -45.5q-32 -29 -63 -29q-30 0 -61 29q-17 17 -25.5 46t-8.5 55z" />
  </font>
</defs>
</svg>
